* Dettagli Torrent   globale  | Commenti (0) 


- Fallen Angels - Angel Killer (2002) [XviD - Italian English Ac3 - Sub Ita] Horror MIRCrew [TNT Villa -


Download via torrent:
Categoria bittorrent BDRip
Descrizione
Fallen Angels - Angel Killer (2002) [XviD - Italian English Ac3 - Sub Ita] Horror MIRCrew [TNT Village]



]



Angel Killer - Fallen Angels (2002)

 

 





Titolo originale: Fallen Angels
Nazionalità: Canada
Anno: 2002
Genere: Horror
Regia: Ian David Diaz
Produzione: Avrio Filmworks Releasin
Distribuzione: Avrio Filmworks Releasin
Data di uscita: 2002









Michael Ironside - Kai Wiesinger - Jeff Fahey








Una troupe televisiva sta conducendo un'indagine sul misterioso incendio che cinque anni prima aveva distrutto una scuola per ragazze, la Holy Angel School. Ma dietro alla vicenda si

nasconde un terribile segreto..........

Storyline

Abandoned and filled with a mysterious past, Holy Angel School for Girls is about to reveal its secrets of betrayal, jealousy, and vengeance. Rumours of haunting, paired with the desire to

forget the painful tragedy that took place five years before, have kept the truth of Holy Angel's last days buried with the innocent victims. A documentary crew headed by an aggressive

Hollywood agent descends upon the school to boost the faltering fortunes of her client, one of the four survivors of the disastrous fire. Hoping to capitalize on the tragedy, the agent

plans to unlock the secrets left behind in the scattered ashes. But someone else has also returned to campus, and with a darker and altogether bloodier purpose in mind.



[spoiler]General
Complete name                    : F:\Angel Killer -  Fallen Angels  (2002)\Angel Killer (2002).avi
Format                           : AVI
Format/Info                      : Audio Video Interleave
File size                        : 1.66 GiB
Duration                         : 1h 37mn
Overall bit rate                 : 2 443 Kbps
Writing application              : VirtualDubMod 1.5.4.1 (build 2178/release)
Writing library                  : VirtualDubMod build 2178/release

Video
ID                               : 0
Format                           : MPEG-4 Visual
Format profile                   : Advanced [email protected]
Format settings, BVOP            : No
Format settings, QPel            : No
Format settings, GMC             : No warppoints
Format settings, Matrix          : Custom
Codec ID                         : XVID
Codec ID/Hint                    : XviD
Duration                         : 1h 37mn
Bit rate                         : 2 050 Kbps
Width                            : 720 pixels
Height                           : 416 pixels
Display aspect ratio             : 16:9
Frame rate                       : 25.000 fps
Color space                      : YUV
Chroma subsampling               : 4:2:0
Bit depth                        : 8 bits
Scan type                        : Progressive
Bits/(Pixel*Frame)               : 0.274
Stream size                      : 1.39 GiB (84%)
Writing library                  : XviD 1.2.1 (UTC 2008-12-04)

Audio #1
ID                               : 1
Format                           : AC-3
Format/Info                      : Audio Coding 3
Mode extension                   : CM (complete main)
Codec ID                         : 2000
Duration                         : 1h 37mn
Bit rate mode                    : Constant
Bit rate                         : 192 Kbps
Channel(s)                       : 2 channels
Channel positions                : Front: L R
Sampling rate                    : 48.0 KHz
Bit depth                        : 16 bits
Stream size                      : 134 MiB (8%)
Alignment                        : Aligned on interleaves
Interleave, duration             : 96 ms (2.40 video frames)
Interleave, preload duration     : 96 ms
Language                         : Italian

Audio #2
ID                               : 2
Format                           : AC-3
Format/Info                      : Audio Coding 3
Mode extension                   : CM (complete main)
Codec ID                         : 2000
Duration                         : 1h 37mn
Bit rate mode                    : Constant
Bit rate                         : 192 Kbps
Channel(s)                       : 2 channels
Channel positions                : Front: L R
Sampling rate                    : 48.0 KHz
Bit depth                        : 16 bits
Stream size                      : 134 MiB (8%)
Alignment                        : Aligned on interleaves
Interleave, duration             : 96 ms (2.40 video frames)
Interleave, preload duration     : 96 ms
Language                         : English





Info: Per scaricare devi usare un client come uTorrent o Transmission
AnnounceURL
http://tracker.tntvillage.scambioetico.org:2710/announce
Hash 1e91adfefd85eb5a35586473a366ba5c8dd628b9
Peers seeds: 47 , leech: 53
Size 1.67 GB
Completato 551x
Aggiunto 06.03.13 - 17:03:10
Uploader   robbyrs
Votazione (Voti: 0)


Condividi questo bittorrent:


html/blog:


bbcode/forum:




Aggiungi Commento