* Dettagli Torrent   globale  | Commenti (0) 


- Conan.The.Barbarian.2011.iTA.ENG.AC3.SUB.iTA.ENG.BluRay.HEVC.1080p.x265.jeddak-MIRCrew -


Download via torrent:
Categoria bittorrent BDRip
Descrizione





Conan The Barbarian


Titolo originale: Conan The Barbarian
Genere: Azione, Avventura, Fantastico
Anno: 2011
Regia: Marcus Nispel
Attori: Jason Momoa, Ron Perlman, Rachel Nichols, Rose McGowan, Stephen Lang, Saïd Taghmaoui, Bob Sapp, Katarzyna Wolejnio, Leo Howard, Nonso Anozie, Raw Leiba, Bashar Rahal
Paese: USA
Durata: 113 min
Distribuzione: 01 Distribution
Sceneggiatura: Robert E. Howard, Thomas Dean Donnelly, Joshua Oppenheimer
Fotografia: Thomas Kloss
Montaggio: Ken Blackwell
Musiche: Tyler Bates
Produzione: Lionsgate, Millennium Films, Nu Image Films, Paradox Entertainment



Conan The Barbarian è un film del 2011 diretto da Marcus Nispel, reboot di Conan il barbaro (1982), ispirato al personaggio creato da Robert E. Howard.
Durante l'era Hyboriana, un gruppo di stregoni di Acheron creò coi teschi dei re morti una maschera: per darle potere di soggiogare il mondo, sacrificarono le loro figlie agli dèi oscuri. Dopo innumerevoli vittorie, i maghi furono fermati da Corin (Ron Perlman), capo di una tribù di Cimmeri, che distrusse la maschera, spargendo i pezzi e tenendone uno per sé.
Anni dopo, i Cimmeri sono in guerra con un clan rivale e la moglie di Corin, incinta, viene ferita, ma prima di morire riesce a dar alla luce il figlio Conan. Il padre da solo se ne prende cura e lo inizia al segreto della spada e dell'acciaio che nasce dal fuoco e dall'acqua. Nel frattempo, lo spietato Khalar Zym (Stephen Lang), che sta cercando di ripristinare la maschera, irrompe nel villaggio e ne reclama l'ultimo pezzo. Quando la strega Marique (Rose McGowan) lo trova, massacra tutta la tribù. L'unico a sopravvivere è Conan, che giura vendetta.
Passano vent'anni e Conan (Jason Momoa) è diventato un guerriero forte e coraggioso, sempre alla ricerca dell'assassino di suo padre. Scopre che Zym sta cercando una discendente di Acheron, Tamara (Rachel Nichols), una giovane e bellissima sacerdotessa: serve il suo sangue per sbloccare il vero potere della maschera. Il fiero guerriero si lancerà in un'epica battaglia che lo porterà ad affrontare imprese impossibili, pericolosi avversari, streghe e mostri orribili. Solo lui può salvare le grandi nazioni di Hyboria da un regno malvagio.





















General
Unique ID                   : 252146298306531206144430521831062634765 ( 0xBDB19C52155EED82B2A9EB6F188A010D )
Complete name               : Conan.The.Barbarian.2011.iTA.ENG.AC3.SUB.iTA.ENG.BluRay.HEVC.1080p.x265.jeddak-MIRCrew.mkv
Format                      : Matroska
Format version              : Version 2
File size                   : 2.38 GiB
Duration                    : 1 h 52 min
Overall bit rate            : 3 010 kb/s
Movie name                  : Conan.The.Barbarian.2011.iTA.ENG.AC3.SUB.iTA.ENG.BluRay.HEVC.1080p.x265.jeddak-MIRCrew
Encoded date                : UTC 2022-11-20 08:45:50
Writing application         : mkvmerge v5.6.0 ( 'Kenya Kane' ) built on May 27 2012 16:44:04
Writing library             : libebml v1.2.3 + libmatroska v1.3.0 / Lavf58.76.100

Video
ID                          : 1
Format                      : HEVC
Format/Info                 : High Efficiency Video Coding
Format profile              : [email protected]@Main
Codec ID                    : V_MPEGH/ISO/HEVC
Duration                    : 1 h 52 min
Bit rate                    : 2 054 kb/s
Width                       : 1 920 pixels
Height                      : 800 pixels
Display aspect ratio        : 2.40:1
Frame rate mode             : Constant
Frame rate                  : 23.976 (24000/1001) FPS
Color space                 : YUV
Chroma subsampling          : 4:2:0 (Type 0)
Bit depth                   : 8 bits
Bits/(Pixel*Frame)          : 0.056
Stream size                 : 1.62 GiB (68%)
Title                       : ...::: jeddak MIRCrew :::...
Writing library             : x265 3.5+1-f0c1022b6:[Linux][GCC 10.3.1][64 bit] 8bit+10bit+12bit
Encoding settings           : cpuid=1111039 / frame-threads=5 / wpp / no-pmode / no-pme / no-psnr / no-ssim / log-level=2 / input-csp=1 / input-res=1920x800 / interlace=0 / total-frames=0 / level-idc=40 / high-tier=1 / uhd-bd=0 / ref=3 / no-allow-non-conformance / no-repeat-headers / annexb / no-aud / no-hrd / info / hash=0 / no-temporal-layers / open-gop / min-keyint=24 / keyint=240 / gop-lookahead=0 / bframes=4 / b-adapt=2 / b-pyramid / bframe-bias=0 / rc-lookahead=20 / lookahead-slices=5 / scenecut=40 / hist-scenecut=0 / radl=0 / no-splice / no-intra-refresh / ctu=64 / min-cu-size=8 / no-rect / no-amp / max-tu-size=32 / tu-inter-depth=1 / tu-intra-depth=1 / limit-tu=0 / rdoq-level=0 / dynamic-rd=0.00 / no-ssim-rd / signhide / no-tskip / nr-intra=0 / nr-inter=0 / no-constrained-intra / strong-intra-smoothing / max-merge=3 / limit-refs=1 / no-limit-modes / me=1 / subme=2 / merange=57 / temporal-mvp / no-frame-dup / no-hme / weightp / no-weightb / no-analyze-src-pics / deblock=0:0 / sao / no-sao-non-deblock / rd=3 / selective-sao=4 / early-skip / rskip / no-fast-intra / no-tskip-fast / no-cu-lossless / b-intra / no-splitrd-skip / rdpenalty=0 / psy-rd=2.00 / psy-rdoq=0.00 / no-rd-refine / no-lossless / cbqpoffs=0 / crqpoffs=0 / rc=abr / bitrate=2100 / qcomp=0.60 / qpstep=4 / stats-write=0 / stats-read=0 / ipratio=1.40 / pbratio=1.30 / aq-mode=2 / aq-strength=1.00 / cutree / zone-count=0 / no-strict-cbr / qg-size=32 / no-rc-grain / qpmax=69 / qpmin=0 / no-const-vbv / sar=1 / overscan=0 / videoformat=5 / range=0 / colorprim=1 / transfer=1 / colormatrix=1 / chromaloc=1 / chromaloc-top=0 / chromaloc-bottom=0 / display-window=0 / cll=0,0 / min-luma=0 / max-luma=255 / log2-max-poc-lsb=8 / vui-timing-info / vui-hrd-info / slices=1 / no-opt-qp-pps / no-opt-ref-list-length-pps / no-multi-pass-opt-rps / scenecut-bias=0.05 / hist-threshold=0.03 / no-opt-cu-delta-qp / no-aq-motion / no-hdr10 / no-hdr10-opt / no-dhdr10-opt / no-idr-recovery-sei / analysis-reuse-level=0 / analysis-save-reuse-level=0 / analysis-load-reuse-level=0 / scale-factor=0 / refine-intra=0 / refine-inter=0 / refine-mv=1 / refine-ctu-distortion=0 / no-limit-sao / ctu-info=0 / no-lowpass-dct / refine-analysis-type=0 / copy-pic=1 / max-ausize-factor=1.0 / no-dynamic-refine / no-single-sei / no-hevc-aq / no-svt / no-field / qp-adaptation-range=1.00 / scenecut-aware-qp=0conformance-window-offsets / right=0 / bottom=0 / decoder-max-rate=0 / no-vbv-live-multi-pass
Default                     : Yes
Forced                      : No
Color range                 : Limited
Color primaries             : BT.709
Transfer characteristics    : BT.709
Matrix coefficients         : BT.709
Duration_Source             : General_Duration

Audio #1
ID                          : 2
Format                      : AC-3
Format/Info                 : Audio Coding 3
Commercial name             : Dolby Digital
Codec ID                    : A_AC3
Duration                    : 1 h 52 min
Bit rate mode               : Constant
Bit rate                    : 448 kb/s
Channel(s)                  : 6 channels
Channel layout              : L R C LFE Ls Rs
Sampling rate               : 48.0 kHz
Frame rate                  : 31.250 FPS (1536 SPF)
Compression mode            : Lossy
Delay relative to video     : -5 ms
Stream size                 : 362 MiB (15%)
Title                       : iTA AC3 5.1
Language                    : Italian
Service kind                : Complete Main
Default                     : Yes
Forced                      : No

Audio #2
ID                          : 3
Format                      : AC-3
Format/Info                 : Audio Coding 3
Commercial name             : Dolby Digital
Codec ID                    : A_AC3
Duration                    : 1 h 52 min
Bit rate mode               : Constant
Bit rate                    : 448 kb/s
Channel(s)                  : 6 channels
Channel layout              : L R C LFE Ls Rs
Sampling rate               : 48.0 kHz
Frame rate                  : 31.250 FPS (1536 SPF)
Compression mode            : Lossy
Delay relative to video     : -5 ms
Stream size                 : 362 MiB (15%)
Title                       : ENG AC3 5.1
Language                    : English
Service kind                : Complete Main
Default                     : No
Forced                      : No

Text #1
ID                          : 4
Format                      : PGS
Codec ID                    : S_HDMV/PGS
Codec ID/Info               : Picture based subtitle format used on BDs/HD-DVDs
Duration                    : 1 h 44 min
Title                       : iTA NON UDENTI - PGS
Language                    : Italian
Default                     : No
Forced                      : No

Text #2
ID                          : 5
Format                      : UTF-8
Codec ID                    : S_TEXT/UTF8
Codec ID/Info               : UTF-8 Plain Text
Title                       : ENG NON UDENTI - SRT
Language                    : English
Default                     : No
Forced                      : No

Menu
00:00:00.000                : :Capitolo 01
00:04:47.871                : :Capitolo 02
00:13:49.203                : :Capitolo 03
00:26:32.466                : :Capitolo 04
00:38:13.958                : :Capitolo 05
00:52:29.021                : :Capitolo 06
01:00:50.856                : :Capitolo 07
01:08:26.144                : :Capitolo 08
01:18:49.266                : :Capitolo 09
01:27:16.690                : :Capitolo 10
01:36:08.012                : :Capitolo 11
01:43:43.092                : :Capitolo 12
01:52:38.293                : :Capitolo 13
Info: Per scaricare devi usare un client come uTorrent o Transmission
AnnounceURL
udp://tracker.torrent.eu.org:451/announce
Hash decebb7836bd4c6845802910b82d4ad703b13e54
Peers seeds: 0 , leech: 0
Size 2.38 GB
Completato 0x
Aggiunto 20.11.22 - 11:11:00
Uploader   jeddak1
Votazione (Voti: 0)


Condividi questo bittorrent:


html/blog:


bbcode/forum:




Aggiungi Commento