* Dettagli Torrent   globale  | Commenti (0) 


- Non.Lasciarmi.2010.iTA.ENG.AC3.SUB.iTA.ENG.BluRay.HEVC.1080p.x265.jeddak-MIRCrew -


Download via torrent:
Categoria bittorrent BDRip
Descrizione





Non Lasciarmi


Titolo originale: Never Let Me Go
Genere: Drammatico, Sentimentale, Fantascienza
Anno: 2010
Regia: Mark Romanek
Attori: Carey Mulligan, Andrew Garfield, Keira Knightley, Sally Hawkins, Charlotte Rampling, Andrea Riseborough, Nathalie Richard, Domhnall Gleeson, Charlie Rowe, Izzy Meikle-Small, Ella Purnell, Kate Bowes Renna, Hannah Sharp, Christina Carrafiell, Oliver Parsons, Luke Bryant, David Sterne, Damien Thomas, Fidelis Morgan, Lydia Wilson, Chidi Chickwe
Paese: Gran Bretagna, USA
Durata: 103 min
Distribuzione: 20th Century Fox
Sceneggiatura: Alex Garland
Fotografia: Adam Kimmel
Montaggio: Barney Pilling
Musiche: Rachel Portman
Produzione: DNA Films, Film4



Non Lasciarmi, film diretto da Mark Romanek, segue le vicende di Kathy (Carey Mulligan), Tommy (Andrew Garfield) e Ruth (Keira Knightley), tutti studenti di Hailsham, un collegio britannico costruito in piena campagna. La loro è un'educazione molto accurata: sono seguiti costantemente da tutor che impartiscono loro lezioni di storia, arte, letteratura. Tutti i loro lavori creativi migliori vengono selezionati da Madame (Nathalie Richard), una donna misteriosa, che li custodisce gelosamente nella sua galleria.
Nel tempo i tre diventano molto uniti, costruendo un rapporto di amicizia indistruttibile. Inevitabilmente a un certo punto Tommy e Ruth si innamorano, senza però rovinare il legame di amicizia con l'altra. Giunto il giorno di lasciare il collegio, i ragazzi vengono trasferiti in una grande fattoria dove trascorrono le loro giornate facendo assolutamente nulla. In realtà il loro destino è già scritto: Kathy, Tommy e Ruth sono dei cloni umani realizzati in laboratorio che diventeranno presto donatori. I loro organi buoni saranno dati a pazienti umani malati. Tutto si complica quando Kathy, dopo una forte lite con gli altri due amici, decide di abbandonare la fattoria e diventare un’assistente, occupandosi lei stessa dei donatori…





















General
Unique ID                   : 210746272588373867783136248440640166025 (0x9E8C4175DB3670EF892A1322894AD889)
Complete name               : Non.Lasciarmi.2010.iTA.ENG.AC3.SUB.iTA.ENG.BluRay.HEVC.1080p.x265.jeddak-MIRCrew.mkv
Format                      : Matroska
Format version              : Version 2
File size                   : 2.20 GiB
Duration                    : 1 h 44 min
Overall bit rate            : 3 028 kb/s
Movie name                  : Non.Lasciarmi.2010.iTA.ENG.AC3.SUB.iTA.ENG.BluRay.HEVC.1080p.x265.jeddak-MIRCrew
Encoded date                : UTC 2022-11-20 05:35:57
Writing application         : mkvmerge v5.6.0 ( 'Kenya Kane' ) built on May 27 2012 16:44:04
Writing library             : libebml v1.2.3 + libmatroska v1.3.0 / Lavf58.76.100

Video
ID                          : 1
Format                      : HEVC
Format/Info                 : High Efficiency Video Coding
Format profile              : [email protected]@Main
Codec ID                    : V_MPEGH/ISO/HEVC
Duration                    : 1 h 44 min
Bit rate                    : 2 072 kb/s
Width                       : 1 920 pixels
Height                      : 816 pixels
Display aspect ratio        : 2.35:1
Frame rate mode             : Constant
Frame rate                  : 23.976 (24000/1001) FPS
Color space                 : YUV
Chroma subsampling          : 4:2:0 (Type 0)
Bit depth                   : 8 bits
Bits/(Pixel*Frame)          : 0.055
Stream size                 : 1.51 GiB (68%)
Title                       : ...::: jeddak MIRCrew :::...
Writing library             : x265 3.5+1-f0c1022b6:[Linux][GCC 10.3.1][64 bit] 8bit+10bit+12bit
Encoding settings           : cpuid=1111039 / frame-threads=5 / wpp / no-pmode / no-pme / no-psnr / no-ssim / log-level=2 / input-csp=1 / input-res=1920x816 / interlace=0 / total-frames=0 / level-idc=40 / high-tier=1 / uhd-bd=0 / ref=3 / no-allow-non-conformance / no-repeat-headers / annexb / no-aud / no-hrd / info / hash=0 / no-temporal-layers / open-gop / min-keyint=24 / keyint=240 / gop-lookahead=0 / bframes=4 / b-adapt=2 / b-pyramid / bframe-bias=0 / rc-lookahead=20 / lookahead-slices=5 / scenecut=40 / hist-scenecut=0 / radl=0 / no-splice / no-intra-refresh / ctu=64 / min-cu-size=8 / no-rect / no-amp / max-tu-size=32 / tu-inter-depth=1 / tu-intra-depth=1 / limit-tu=0 / rdoq-level=0 / dynamic-rd=0.00 / no-ssim-rd / signhide / no-tskip / nr-intra=0 / nr-inter=0 / no-constrained-intra / strong-intra-smoothing / max-merge=3 / limit-refs=1 / no-limit-modes / me=1 / subme=2 / merange=57 / temporal-mvp / no-frame-dup / no-hme / weightp / no-weightb / no-analyze-src-pics / deblock=0:0 / sao / no-sao-non-deblock / rd=3 / selective-sao=4 / early-skip / rskip / no-fast-intra / no-tskip-fast / no-cu-lossless / b-intra / no-splitrd-skip / rdpenalty=0 / psy-rd=2.00 / psy-rdoq=0.00 / no-rd-refine / no-lossless / cbqpoffs=0 / crqpoffs=0 / rc=abr / bitrate=2100 / qcomp=0.60 / qpstep=4 / stats-write=0 / stats-read=0 / ipratio=1.40 / pbratio=1.30 / aq-mode=2 / aq-strength=1.00 / cutree / zone-count=0 / no-strict-cbr / qg-size=32 / no-rc-grain / qpmax=69 / qpmin=0 / no-const-vbv / sar=1 / overscan=0 / videoformat=5 / range=0 / colorprim=1 / transfer=1 / colormatrix=1 / chromaloc=1 / chromaloc-top=0 / chromaloc-bottom=0 / display-window=0 / cll=0,0 / min-luma=0 / max-luma=255 / log2-max-poc-lsb=8 / vui-timing-info / vui-hrd-info / slices=1 / no-opt-qp-pps / no-opt-ref-list-length-pps / no-multi-pass-opt-rps / scenecut-bias=0.05 / hist-threshold=0.03 / no-opt-cu-delta-qp / no-aq-motion / no-hdr10 / no-hdr10-opt / no-dhdr10-opt / no-idr-recovery-sei / analysis-reuse-level=0 / analysis-save-reuse-level=0 / analysis-load-reuse-level=0 / scale-factor=0 / refine-intra=0 / refine-inter=0 / refine-mv=1 / refine-ctu-distortion=0 / no-limit-sao / ctu-info=0 / no-lowpass-dct / refine-analysis-type=0 / copy-pic=1 / max-ausize-factor=1.0 / no-dynamic-refine / no-single-sei / no-hevc-aq / no-svt / no-field / qp-adaptation-range=1.00 / scenecut-aware-qp=0conformance-window-offsets / right=0 / bottom=0 / decoder-max-rate=0 / no-vbv-live-multi-pass
Default                     : Yes
Forced                      : No
Color range                 : Limited
Color primaries             : BT.709
Transfer characteristics    : BT.709
Matrix coefficients         : BT.709
Duration_Source             : General_Duration

Audio #1
ID                          : 2
Format                      : AC-3
Format/Info                 : Audio Coding 3
Commercial name             : Dolby Digital
Codec ID                    : A_AC3
Duration                    : 1 h 44 min
Bit rate mode               : Constant
Bit rate                    : 448 kb/s
Channel(s)                  : 6 channels
Channel layout              : L R C LFE Ls Rs
Sampling rate               : 48.0 kHz
Frame rate                  : 31.250 FPS (1536 SPF)
Compression mode            : Lossy
Delay relative to video     : -5 ms
Stream size                 : 333 MiB (15%)
Title                       : iTA AC3 5.1
Language                    : Italian
Service kind                : Complete Main
Default                     : Yes
Forced                      : No

Audio #2
ID                          : 3
Format                      : AC-3
Format/Info                 : Audio Coding 3
Commercial name             : Dolby Digital
Codec ID                    : A_AC3
Duration                    : 1 h 44 min
Bit rate mode               : Constant
Bit rate                    : 448 kb/s
Channel(s)                  : 6 channels
Channel layout              : L R C LFE Ls Rs
Sampling rate               : 48.0 kHz
Frame rate                  : 31.250 FPS (1536 SPF)
Compression mode            : Lossy
Delay relative to video     : -5 ms
Stream size                 : 333 MiB (15%)
Title                       : ENG AC3 5.1
Language                    : English
Service kind                : Complete Main
Default                     : No
Forced                      : No

Text #1
ID                          : 4
Format                      : UTF-8
Codec ID                    : S_TEXT/UTF8
Codec ID/Info               : UTF-8 Plain Text
Title                       : iTA FORCED - SRT
Language                    : Italian
Default                     : No
Forced                      : Yes

Text #2
ID                          : 5
Format                      : PGS
Codec ID                    : S_HDMV/PGS
Codec ID/Info               : Picture based subtitle format used on BDs/HD-DVDs
Duration                    : 1 h 43 min
Title                       : iTA FORCED - PGS
Language                    : Italian
Default                     : Yes
Forced                      : Yes

Text #3
ID                          : 6
Format                      : PGS
Codec ID                    : S_HDMV/PGS
Codec ID/Info               : Picture based subtitle format used on BDs/HD-DVDs
Duration                    : 1 h 43 min
Title                       : iTA REGULAR - PGS
Language                    : Italian
Default                     : No
Forced                      : No

Text #4
ID                          : 7
Format                      : PGS
Codec ID                    : S_HDMV/PGS
Codec ID/Info               : Picture based subtitle format used on BDs/HD-DVDs
Duration                    : 1 h 43 min
Title                       : ENG NON UDENTI - PGS
Language                    : English
Default                     : No
Forced                      : No

Menu
00:00:00.000                : :Capitolo 01
00:05:01.510                : :Capitolo 02
00:07:41.753                : :Capitolo 03
00:11:57.050                : :Capitolo 04
00:16:22.273                : :Capitolo 05
00:18:50.087                : :Capitolo 06
00:22:41.694                : :Capitolo 07
00:25:57.139                : :Capitolo 08
00:29:32.229                : :Capitolo 09
00:32:35.412                : :Capitolo 10
00:35:11.276                : :Capitolo 11
00:38:26.012                : :Capitolo 12
00:42:37.055                : :Capitolo 13
00:47:39.607                : :Capitolo 14
00:51:11.777                : :Capitolo 15
00:54:11.915                : :Capitolo 16
00:56:13.287                : :Capitolo 17
01:00:12.400                : :Capitolo 18
01:05:12.409                : :Capitolo 19
01:10:27.432                : :Capitolo 20
01:12:50.950                : :Capitolo 21
01:15:27.148                : :Capitolo 22
01:18:26.160                : :Capitolo 23
01:19:40.317                : :Capitolo 24
01:21:25.964                : :Capitolo 25
01:26:30.227                : :Capitolo 26
01:32:53.401                : :Capitolo 27
01:37:01.649                : :Capitolo 28
Info: Per scaricare devi usare un client come uTorrent o Transmission
AnnounceURL
udp://tracker.torrent.eu.org:451/announce
Hash c676851913e809dcb07d154bf6f74027a3e35937
Peers seeds: 0 , leech: 0
Size 2.20 GB
Completato 0x
Aggiunto 20.11.22 - 07:11:15
Uploader   jeddak1
Votazione (Voti: 0)


Condividi questo bittorrent:


html/blog:


bbcode/forum:




Aggiungi Commento