* Dettagli Torrent   globale  | Commenti (0) 


- Il.Sorpasso.1962.iTALiAN.AC3.SUB.ENG.BluRay.HEVC.1080p.x265.jeddak-MIRCrew -


Download via torrent:
Categoria bittorrent BDRip
Descrizione





Il Sorpasso


Titolo originale: Il Sorpasso
Genere: Commedia, Drammatico
Anno: 1962
Regia: Dino Risi
Attori: Vittorio Gassman, Jean-Louis Trintignant, Catherine Spaak, Claudio Gora, Luciana Angiolillo, Luigi Zerbinati, Mila Stanic, Barbara Simon, Nando Angelini, Linda Sini, Lilli Dorelli, Edda Ferronao, Franca Polesello
Paese: Italia
Durata: 105 min
Distribuzione: Incei Film - Columbia, Tristar Home Video, Cecchi Gori Home Video, L'unità Video
Sceneggiatura: Dino Risi, Ettore Scola, Ruggero Maccari
Fotografia: Alfio Contini
Montaggio: Maurizio Lucidi
Musiche: Riz Ortolani
Produzione: Mario Cecchi Gori per Fair Film, Incei Film, Sancro Film



Il Sorpasso è un film drammatico del 1962, diretto da Dino Risi.
Le vicende narrate si svolgono nell'arco di una sola giornata. Nella torrida mattinata del Ferragosto del 1962, Roma è deserta. Bruno Cortona (Vittorio Gassman), un prestante quarantenne ossessionato dall'ansia di vivere e dal timore della vecchiaia, cialtrone e nullafacente, amante della guida sportiva e delle belle donne, vaga in auto alla ricerca di un pacchetto di sigarette e di un telefono pubblico.
Si imbatte nel giovane Roberto Mariani (Jean-Louis Trintignant), uno studente timido iscritto a Giurisprudenza: il ragazzo è rimasto nella desolata capitale per preparare degli esami. La sua realizzazione massima sarebbe quella di seguire le orme del cugino Alfredo - avvocato di uno studio privato a Rieti - avere una bella moglie e una Fiat 500.
Bruno chiede a Roberto il favore di usare il telefono di casa e poi lo invita per un giro sulla propria Lancia Aurelia B24 decappottabile. Il ragazzo, dapprima riluttante, accetta attratto dall'esuberanza dirompente di Bruno: inizia così uno scontro/incontro tra due generazioni, due classi sociali, due modi di vedere la vita. Gli amici per caso intraprendono un viaggio in auto lungo la via Aurelia, che li porterà verso la Toscana e mete sempre più distanti.
Arriveranno a far visita ad alcuni parenti di Roberto, a Lilly (Catherine Spaak), la figlia di Bruno e alla sua ex-moglie. Le ore passano veloci in un susseguirsi di episodi tragicomici, fino ad un inatteso epilogo...





















General
Unique ID                   : 211756211222752925398599761231809374434 (0x9F4EC3478AA9140AB065F19229A468E2)
Complete name               : Il.Sorpasso.1962.iTALiAN.AC3.SUB.ENG.BluRay.HEVC.1080p.x265.jeddak-MIRCrew.mkv
Format                      : Matroska
Format version              : Version 2
File size                   : 1.69 GiB
Duration                    : 1 h 45 min
Overall bit rate            : 2 296 kb/s
Movie name                  : Il.Sorpasso.1962.iTALiAN.AC3.SUB.ENG.BluRay.HEVC.1080p.x265.jeddak-MIRCrew
Encoded date                : UTC 2022-10-08 09:13:35
Writing application         : mkvmerge v5.6.0 ( 'Kenya Kane' ) built on May 27 2012 16:44:04
Writing library             : libebml v1.2.3 + libmatroska v1.3.0 / Lavf58.76.100

Video
ID                          : 1
Format                      : HEVC
Format/Info                 : High Efficiency Video Coding
Format profile              : [email protected]@Main
Codec ID                    : V_MPEGH/ISO/HEVC
Duration                    : 1 h 45 min
Bit rate                    : 2 123 kb/s
Width                       : 1 920 pixels
Height                      : 1 040 pixels
Display aspect ratio        : 1.85:1
Frame rate mode             : Constant
Frame rate                  : 23.976 (24000/1001) FPS
Color space                 : YUV
Chroma subsampling          : 4:2:0 (Type 0)
Bit depth                   : 8 bits
Bits/(Pixel*Frame)          : 0.044
Stream size                 : 1.56 GiB (92%)
Title                       : ...::: jeddak MIRCrew :::...
Writing library             : x265 3.5+1-f0c1022b6:[Linux][GCC 10.3.1][64 bit] 8bit+10bit+12bit
Encoding settings           : cpuid=1111039 / frame-threads=5 / wpp / no-pmode / no-pme / no-psnr / no-ssim / log-level=2 / input-csp=1 / input-res=1920x1040 / interlace=0 / total-frames=0 / level-idc=40 / high-tier=1 / uhd-bd=0 / ref=3 / no-allow-non-conformance / no-repeat-headers / annexb / no-aud / no-hrd / info / hash=0 / no-temporal-layers / open-gop / min-keyint=24 / keyint=240 / gop-lookahead=0 / bframes=4 / b-adapt=2 / b-pyramid / bframe-bias=0 / rc-lookahead=20 / lookahead-slices=6 / scenecut=40 / hist-scenecut=0 / radl=0 / no-splice / no-intra-refresh / ctu=64 / min-cu-size=8 / no-rect / no-amp / max-tu-size=32 / tu-inter-depth=1 / tu-intra-depth=1 / limit-tu=0 / rdoq-level=0 / dynamic-rd=0.00 / no-ssim-rd / signhide / no-tskip / nr-intra=0 / nr-inter=0 / no-constrained-intra / strong-intra-smoothing / max-merge=3 / limit-refs=1 / no-limit-modes / me=1 / subme=2 / merange=57 / temporal-mvp / no-frame-dup / no-hme / weightp / no-weightb / no-analyze-src-pics / deblock=0:0 / sao / no-sao-non-deblock / rd=3 / selective-sao=4 / early-skip / rskip / no-fast-intra / no-tskip-fast / no-cu-lossless / b-intra / no-splitrd-skip / rdpenalty=0 / psy-rd=2.00 / psy-rdoq=0.00 / no-rd-refine / no-lossless / cbqpoffs=0 / crqpoffs=0 / rc=abr / bitrate=2100 / qcomp=0.60 / qpstep=4 / stats-write=0 / stats-read=0 / ipratio=1.40 / pbratio=1.30 / aq-mode=2 / aq-strength=1.00 / cutree / zone-count=0 / no-strict-cbr / qg-size=32 / no-rc-grain / qpmax=69 / qpmin=0 / no-const-vbv / sar=1 / overscan=0 / videoformat=5 / range=0 / colorprim=1 / transfer=1 / colormatrix=1 / chromaloc=1 / chromaloc-top=0 / chromaloc-bottom=0 / display-window=0 / cll=0,0 / min-luma=0 / max-luma=255 / log2-max-poc-lsb=8 / vui-timing-info / vui-hrd-info / slices=1 / no-opt-qp-pps / no-opt-ref-list-length-pps / no-multi-pass-opt-rps / scenecut-bias=0.05 / hist-threshold=0.03 / no-opt-cu-delta-qp / no-aq-motion / no-hdr10 / no-hdr10-opt / no-dhdr10-opt / no-idr-recovery-sei / analysis-reuse-level=0 / analysis-save-reuse-level=0 / analysis-load-reuse-level=0 / scale-factor=0 / refine-intra=0 / refine-inter=0 / refine-mv=1 / refine-ctu-distortion=0 / no-limit-sao / ctu-info=0 / no-lowpass-dct / refine-analysis-type=0 / copy-pic=1 / max-ausize-factor=1.0 / no-dynamic-refine / no-single-sei / no-hevc-aq / no-svt / no-field / qp-adaptation-range=1.00 / scenecut-aware-qp=0conformance-window-offsets / right=0 / bottom=0 / decoder-max-rate=0 / no-vbv-live-multi-pass
Default                     : Yes
Forced                      : No
Color range                 : Limited
Color primaries             : BT.709
Transfer characteristics    : BT.709
Matrix coefficients         : BT.709
Duration_Source             : General_Duration

Audio
ID                          : 2
Format                      : AC-3
Format/Info                 : Audio Coding 3
Commercial name             : Dolby Digital
Codec ID                    : A_AC3
Duration                    : 1 h 45 min
Bit rate mode               : Constant
Bit rate                    : 128 kb/s
Channel(s)                  : 1 channel
Channel layout              : C
Sampling rate               : 48.0 kHz
Frame rate                  : 31.250 FPS (1536 SPF)
Compression mode            : Lossy
Delay relative to video     : -5 ms
Stream size                 : 96.6 MiB (6%)
Title                       : iTA AC3 1.0
Language                    : Italian
Service kind                : Complete Main
Default                     : Yes
Forced                      : No

Text
ID                          : 3
Format                      : PGS
Codec ID                    : S_HDMV/PGS
Codec ID/Info               : Picture based subtitle format used on BDs/HD-DVDs
Duration                    : 1 h 44 min
Title                       : ENG REGULAR - PGS
Language                    : English
Default                     : No
Forced                      : No

Menu
00:00:00.000                : :Capitolo 01
00:08:12.450                : :Capitolo 02
00:17:45.648                : :Capitolo 03
00:22:46.657                : :Capitolo 04
00:29:20.300                : :Capitolo 05
00:32:53.847                : :Capitolo 06
00:41:35.827                : :Capitolo 07
00:48:10.304                : :Capitolo 08
00:54:12.833                : :Capitolo 09
00:56:51.825                : :Capitolo 10
00:58:40.142                : :Capitolo 11
01:04:08.178                : :Capitolo 12
01:11:28.201                : :Capitolo 13
01:16:57.196                : :Capitolo 14
01:24:37.823                : :Capitolo 15
01:30:31.468                : :Capitolo 16
01:34:57.692                : :Capitolo 17
01:41:30.334                : :Capitolo 18
Info: Per scaricare devi usare un client come uTorrent o Transmission
AnnounceURL
udp://tracker.torrent.eu.org:451/announce
Hash 378d64fb4d3a0d6567be415944256a3b09e4ecc6
Peers seeds: 0 , leech: 0
Size 1.69 GB
Completato 0x
Aggiunto 08.10.22 - 12:10:21
Uploader   jeddak1
Votazione (Voti: 0)


Condividi questo bittorrent:


html/blog:


bbcode/forum:




Aggiungi Commento