* Dettagli Torrent   globale  | Commenti (0) 


- [1939] Il Mago di Oz - Pink Floyd Dark Side Mix [1080p.x265.FLAC.SACD.5.1.ITA-ENG] (by.phadron) -


Download via torrent:
Categoria bittorrent BDRip
Descrizione





La leggenda narra che guardando il film facendo partire l'audio dell album
- The dark side of the Moon dei Pink Floyd -  al terzo ruggito del leone si notano molte coincidenze...



In pratica è il video che si può vedere su youtu.be/bBamIi0tIRg ma con audio da SACD e video 1080p x265 10bit


L audio FLAC SACD 5.1 è STREPITOSO

Ho aggiunto una traccia sottotitoli apposita per i più disattenti

Se notate altre coincidenze scrivetelo sui commenti sul forum di MIRCrew, grazie!


Screen: QUI
Info: MIRCrew forum release

Unique ID : 195990463696591637149544900508491446615 (0x937263E9B3BA9A691F49DEBEAEE3F957)
Complete name : [1939] The Wizard of Oz - Pink Floyd Dark Side [1080p.x265.10bit-FLAC.5.1-SACD] (by.phadron) MIRCrew.mkv
Format : Matroska
Format version : Version 4
File size : 6.76 GiB
Duration : 1 h 41 min
Overall bit rate mode : Variable
Overall bit rate : 9 512 kb/s
Movie name : The Wizard of Oz (1939) Pink Floyd - The Dark Side of the Moon
Encoded date : UTC 2022-06-10 14:58:11
Writing application : mkvmerge v68.0.0 ('The Curtain&#39 64-bit
Writing library : libebml v1.4.2 + libmatroska v1.6.4
Cover : Yes
Attachments : 1939-Wizarz-Oz_Floyd_cover.jpg

Video
ID : 1
Format : HEVC
Format/Info : High Efficiency Video Coding
Format profile : Main [email protected]@Main
HDR format : SMPTE ST 2086, HDR10 compatible
Codec ID : V_MPEGH/ISO/HEVC
Duration : 1 h 41 min
Bit rate : 6 049 kb/s
Width : 1 480 pixels
Height : 1 080 pixels
Display aspect ratio : 1.370
Frame rate mode : Constant
Frame rate : 23.976 (24000/1001) FPS
Color space : YUV
Chroma subsampling : 4:2:0
Bit depth : 10 bits
Bits/(Pixel*Frame) : 0.158
Stream size : 4.30 GiB (64%)
Writing library : x265 3.4+1-7b120308dc64:[Windows][GCC 10.1.0][64 bit] 10bit
Encoding settings : cpuid=1111039 / frame-threads=3 / numa-pools=8 / wpp / no-pmode / no-pme / no-psnr / no-ssim / log-level=2 / input-csp=1 / input-res=1480x1080 / interlace=0 / total-frames=146383 / level-idc=0 / high-tier=1 / uhd-bd=0 / ref=4 / no-allow-non-conformance / repeat-headers / annexb / aud / no-hrd / info / hash=0 / no-temporal-layers / open-gop / min-keyint=23 / keyint=250 / gop-lookahead=0 / bframes=8 / b-adapt=2 / b-pyramid / bframe-bias=0 / rc-lookahead=80 / lookahead-slices=4 / scenecut=40 / hist-scenecut=0 / radl=0 / no-splice / no-intra-refresh / ctu=64 / min-cu-size=8 / no-rect / no-amp / max-tu-size=32 / tu-inter-depth=1 / tu-intra-depth=1 / limit-tu=0 / rdoq-level=2 / dynamic-rd=0.00 / no-ssim-rd / signhide / no-tskip / nr-intra=0 / nr-inter=0 / no-constrained-intra / no-strong-intra-smoothing / max-merge=3 / limit-refs=3 / limit-modes / me=3 / subme=5 / merange=57 / temporal-mvp / no-frame-dup / no-hme / weightp / no-weightb / no-analyze-src-pics / deblock=-3:-3 / no-sao / no-sao-non-deblock / rd=5 / selective-sao=0 / no-early-skip / rskip / no-fast-intra / no-tskip-fast / no-cu-lossless / no-b-intra / no-splitrd-skip / rdpenalty=0 / psy-rd=2.00 / psy-rdoq=1.00 / no-rd-refine / no-lossless / cbqpoffs=0 / crqpoffs=0 / rc=crf / crf=18.9 / qcomp=0.60 / qpstep=4 / stats-write=0 / stats-read=0 / ipratio=1.40 / pbratio=1.30 / aq-mode=3 / aq-strength=1.00 / cutree / zone-count=0 / no-strict-cbr / qg-size=32 / no-rc-grain / qpmax=69 / qpmin=0 / no-const-vbv / sar=0 / overscan=0 / videoformat=5 / range=0 / colorprim=9 / transfer=16 / colormatrix=9 / chromaloc=0 / display-window=0 / master-display=G(13250,34500)B(7500,3000)R(34000,16000)WP(15635,16450)L(40000000,50) / cll=2000,76 / min-luma=0 / max-luma=1023 / log2-max-poc-lsb=8 / vui-timing-info / vui-hrd-info / slices=1 / no-opt-qp-pps / no-opt-ref-list-length-pps / no-multi-pass-opt-rps / scenecut-bias=0.05 / hist-threshold=0.01 / no-opt-cu-delta-qp / no-aq-motion / hdr10 / hdr10-opt / no-dhdr10-opt / no-idr-recovery-sei / analysis-reuse-level=0 / analysis-save-reuse-level=0 / analysis-load-reuse-level=0 / scale-factor=0 / refine-intra=0 / refine-inter=0 / refine-mv=1 / refine-ctu-distortion=0 / no-limit-sao / ctu-info=0 / no-lowpass-dct / refine-analysis-type=0 / copy-pic=1 / max-ausize-factor=1.0 / no-dynamic-refine / no-single-sei / no-hevc-aq / no-svt / no-field / qp-adaptation-range=1.00 / no-scenecut-aware-qpconformance-window-offsets / right=0 / bottom=0 / decoder-max-rate=0
Language : English
Default : Yes
Forced : No
Color range : Limited
Color primaries : BT.2020
Transfer characteristics : PQ
Matrix coefficients : BT.2020 non-constant
Mastering display color primaries : Display P3
Mastering display luminance : min: 0.0050 cd/m2, max: 4000 cd/m2
Maximum Content Light Level : 2000 cd/m2
Maximum Frame-Average Light Level : 76 cd/m2

Audio #1
ID : 2
Format : AAC LC
Format/Info : Advanced Audio Codec Low Complexity
Codec ID : A_AAC-2
Duration : 1 h 41 min
Bit rate : 332 kb/s
Channel(s) : 6 channels
Channel layout : C L R Ls Rs LFE
Sampling rate : 48.0 kHz
Frame rate : 46.875 FPS (1024 SPF)
Compression mode : Lossy
Delay relative to video : 20 ms
Stream size : 242 MiB (3%)
Language : English
Default : No
Forced : No

Audio #2
ID : 3
Format : AAC LC SBR
Format/Info : Advanced Audio Codec Low Complexity with Spectral Band Replication
Commercial name : HE-AAC
Format settings : Explicit
Codec ID : A_AAC-2
Duration : 1 h 41 min
Bit rate : 80.0 kb/s
Channel(s) : 2 channels
Channel layout : L R
Sampling rate : 48.0 kHz
Frame rate : 23.438 FPS (2048 SPF)
Compression mode : Lossy
Delay relative to video : 40 ms
Stream size : 58.2 MiB (1%)
Title : Commentary by Director Sydney Pollack, Historian John Fricke and rare interview clips from the Cast, Crew and their Family
Language : English
Default : No
Forced : No

Audio #3
ID : 4
Format : FLAC
Format/Info : Free Lossless Audio Codec
Codec ID : A_FLAC
Duration : 1 h 41 min
Bit rate mode : Variable
Bit rate : 2 923 kb/s
Channel(s) : 2 channels
Channel layout : L R
Sampling rate : 96.0 kHz
Frame rate : 23.438 FPS (4096 SPF)
Bit depth : 24 bits
Compression mode : Lossless
Stream size : 2.08 GiB (31%)
Title : Pink Floyd - The Dark Side of the Moon SACD 5.1
Writing library : libFLAC 20080709 (UTC 2008-07-09)
Language : English
Default : No
Forced : No

Audio #4
ID : 5
Format : AC-3
Format/Info : Audio Coding 3
Commercial name : Dolby Digital
Codec ID : A_AC3
Duration : 1 h 41 min
Bit rate mode : Constant
Bit rate : 96.0 kb/s
Channel(s) : 1 channel
Channel layout : C
Sampling rate : 48.0 kHz
Frame rate : 31.250 FPS (1536 SPF)
Compression mode : Lossy
Stream size : 69.9 MiB (1%)
Language : Italian
Service kind : Complete Main
Default : Yes
Forced : No

Text #1
ID : 6
Format : PGS
Muxing mode : zlib
Codec ID : S_HDMV/PGS
Codec ID/Info : Picture based subtitle format used on BDs/HD-DVDs
Duration : 1 h 39 min
Bit rate : 38.6 kb/s
Count of elements : 3000
Stream size : 27.4 MiB (0%)
Title : SDH
Language : English
Default : No
Forced : No

Text #2
ID : 7
Format : PGS
Muxing mode : zlib
Codec ID : S_HDMV/PGS
Codec ID/Info : Picture based subtitle format used on BDs/HD-DVDs
Duration : 1 h 30 min
Bit rate : 229 b/s
Count of elements : 16
Stream size : 152 KiB (0%)
Title : Forzati
Language : Italian
Default : Yes
Forced : Yes

Text #3
ID : 8
Format : PGS
Muxing mode : zlib
Codec ID : S_HDMV/PGS
Codec ID/Info : Picture based subtitle format used on BDs/HD-DVDs
Duration : 1 h 41 min
Bit rate : 29.8 kb/s
Count of elements : 2760
Stream size : 21.6 MiB (0%)
Title : Completi
Language : Italian
Default : No
Forced : No

Text #4
ID : 9
Format : UTF-8
Codec ID : S_TEXT/UTF8
Codec ID/Info : UTF-8 Plain Text
Duration : 1 h 37 min
Bit rate : 4 b/s
Count of elements : 37
Stream size : 3.56 KiB (0%)
Title : Synh points
Language : English
Default : No
Forced : No

Menu
00:00:00.000 : en:Main Title
00:01:35.304 : enrologue
00:01:54.823 : enorothy's Dilemma
00:05:48.348 : en:Over the Rainbow
00:08:02.065 : en:Miss Gulch
00:10:20.578 : en:Toto Escapes
00:11:02.370 : enorothy Runs Away
00:12:46.391 : en:Crystal Gazing
00:15:05.988 : en:"It's A Twister!"
00:17:01.187 : en:Inside the Cyclone
00:19:26.499 : en:Not in Kansas Anymore
00:22:58.752 : en:Come Out, Come Out
00:23:43.339 : en:It Really Was No Miracle
00:24:41.563 : ening! Dong! the Witch Is Dead!
00:27:35.237 : en:The Lullaby League
00:28:03.515 : en:The Lollipop Guild
00:29:06.828 : en:"Who Killed My Sister?"
00:31:05.530 : en:"What a Smell of Sulfur!"
00:32:34.661 : en:Follow the Yellow Brick Road
00:33:14.034 : en:You're Off to See the Wizard
00:34:03.750 : enorothy Meets the Scarecrow
00:36:32.607 : en:If I Only Had a Brain
00:38:38.608 : en:We're Off to See the Wizard
00:39:15.603 : en:"Apples!"
00:40:29.344 : en:"A Man Made Out of Tin!"
00:42:46.022 : en:If I Only Had a Heart
00:45:55.503 : en:"Wanna Play Ball?"
00:47:00.317 : en:"To Oz? To Oz!"
00:47:56.123 : en:"Lions and Tigers and Bears. Oh My!"
00:49:04.817 : en:Meeting the Cowardly Lion
00:52:07.291 : en:If I Only Had the Nerve
00:52:51.043 : en:We're Off to See the Wizard
00:53:53.647 : en:"Poppies Will Put Them to Sleep!"
00:57:20.020 : en:Optimistic Voices
00:58:23.542 : en:The Emerald City
01:00:34.214 : en:The Merry Old Land of Oz
01:02:14.022 : en:Surrender, Dorothy
01:03:58.418 : en:If I Were the King of the Forest
01:08:45.705 : en:Meeting the Wizard of Oz
01:12:44.735 : en:The Haunted Forest
01:14:31.133 : en:Attack of the Winged Monkeys
01:16:11.400 : enorothy in Captivity
01:17:25.349 : en:Toto's Escape
01:20:39.334 : en:March of the Winkies
01:23:19.870 : en:The Rescue
01:24:50.877 : en:"Seize Them!"
01:25:55.067 : en:"I'm Melting!"
01:26:59.256 : en:"The Wicked Witch Is Dead!"
01:28:23.507 : en:The Wizard Revealed
01:29:23.316 : en:Heroic Rewards
01:33:47.914 : en:The Wizard's Balloon
01:35:50.578 : en:Glinda Returns
01:37:33.264 : enorothy's Farewell
01:38:39.747 : en:"There's No Place Like Home!"
01:41:24.287 : en:Cast List
Info: Per scaricare devi usare un client come uTorrent o Transmission
AnnounceURL
udp://tracker.torrent.eu.org:451/announce
Hash a3a382326a9963f2a6477947bd80228f522ae879
Peers seeds: 21 , leech: 3
Size 6.76 GB
Completato 864x
Aggiunto 10.06.22 - 20:06:34
Uploader   phadron
Votazione (Voti: 0)


Condividi questo bittorrent:


html/blog:


bbcode/forum:




Aggiungi Commento