* Dettagli Torrent   globale  | Commenti (0) 


- America.Latina.2021.iTALiAN.AC3.SUB.iTA.BluRay.HEVC.1080p.x265.jeddak-MIRCrew -


Download via torrent:
Categoria bittorrent BDRip
Descrizione





America Latina


Titolo originale: America Latina
Genere: Drammatico, Thriller
Anno: 2021
Regia: Damiano D'Innocenzo, Fabio D'Innocenzo
Attori: Elio Germano, Astrid Casali, Sara Ciocca, Maurizio Lastrico, Carlotta Gamba, Federica Pala, Filippo Dini, Massimo Wertmüller
Paese: Italia
Durata: 90 min
Distribuzione: Vision Distribution
Sceneggiatura: Damiano D'Innocenzo, Fabio D'Innocenzo
Fotografia: Paolo Carnera
Produzione: The Apartment, società del gruppo Fremantle, Vision Distribution e Le Pacte



America Latina, il film diretto da Damiano e Fabio D'Innocenzo, è ambientato a Latina, la provincia laziale note per le sue paludi bonificate, per il caldo umido e per quella centrale nucleare dimessa che si erge nei pressi di Borgo Sabotino. Il film racconta la storia di Massimo Sisti (Elio Germano), dentista facoltoso e proprietario di un suo studio; un uomo dal carattere affabile, mite e molto professionale. Massimo ha tutto ciò che ha sempre voluto: una grande villa dove vivere in completa tranquillità e una famiglia amorevole, formata dalla moglie Alessandra e le figlie Laura e Ilenia, che lo circonda ogni giorno con affetto. Le tre donne della sua vita sono tutto per lui, rappresentano la sua completa felicità e un premio, dato dalla vita, per la sua onestà e la sua esistenza volta al sacrificio e al lavoro.
Ma la tranquillità di Massimo sta per essere spazzata via in un giorno primaverile da qualcosa di inaspettato e improvviso: quando l'uomo scende in cantina - così come fa ogni giorno - non immagina di certo che qualcosa di totalmente assurdo gli stia per accadere...





















General
Unique ID                   : 246440876310844404602316232771095668882 (0xB966C94C520D339FAC7BB4155526A892)
Complete name               : America.Latina.2021.iTALiAN.AC3.SUB.iTA.BluRay.HEVC.1080p.x265.jeddak-MIRCrew.mkv
Format                      : Matroska
Format version              : Version 2
File size                   : 1.71 GiB
Duration                    : 1 h 32 min
Overall bit rate            : 2 651 kb/s
Movie name                  : America.Latina.2021.iTALiAN.AC3.SUB.iTA.BluRay.HEVC.1080p.x265.jeddak-MIRCrew
Encoded date                : UTC 2022-05-08 15:21:12
Writing application         : mkvmerge v5.6.0 ( 'Kenya Kane' ) built on May 27 2012 16:44:04
Writing library             : libebml v1.2.3 + libmatroska v1.3.0 / Lavf58.76.100

Video
ID                          : 1
Format                      : HEVC
Format/Info                 : High Efficiency Video Coding
Format profile              : [email protected]@Main
Codec ID                    : V_MPEGH/ISO/HEVC
Duration                    : 1 h 32 min
Bit rate                    : 2 150 kb/s
Width                       : 1 920 pixels
Height                      : 800 pixels
Display aspect ratio        : 2.40:1
Frame rate mode             : Constant
Frame rate                  : 24.000 FPS
Color space                 : YUV
Chroma subsampling          : 4:2:0
Bit depth                   : 8 bits
Bits/(Pixel*Frame)          : 0.058
Stream size                 : 1.38 GiB (81%)
Title                       : ...::: jeddak MIRCrew :::...
Writing library             : x265 3.5+1-f0c1022b6:[Linux][GCC 9.3.0][64 bit] 8bit+10bit+12bit
Encoding settings           : cpuid=1111039 / frame-threads=5 / wpp / no-pmode / no-pme / no-psnr / no-ssim / log-level=2 / input-csp=1 / input-res=1920x800 / interlace=0 / total-frames=0 / level-idc=40 / high-tier=1 / uhd-bd=0 / ref=3 / no-allow-non-conformance / no-repeat-headers / annexb / no-aud / no-hrd / info / hash=0 / no-temporal-layers / open-gop / min-keyint=24 / keyint=240 / gop-lookahead=0 / bframes=4 / b-adapt=2 / b-pyramid / bframe-bias=0 / rc-lookahead=20 / lookahead-slices=5 / scenecut=40 / hist-scenecut=0 / radl=0 / no-splice / no-intra-refresh / ctu=64 / min-cu-size=8 / no-rect / no-amp / max-tu-size=32 / tu-inter-depth=1 / tu-intra-depth=1 / limit-tu=0 / rdoq-level=0 / dynamic-rd=0.00 / no-ssim-rd / signhide / no-tskip / nr-intra=0 / nr-inter=0 / no-constrained-intra / strong-intra-smoothing / max-merge=3 / limit-refs=1 / no-limit-modes / me=1 / subme=2 / merange=57 / temporal-mvp / no-frame-dup / no-hme / weightp / no-weightb / no-analyze-src-pics / deblock=0:0 / sao / no-sao-non-deblock / rd=3 / selective-sao=4 / early-skip / rskip / no-fast-intra / no-tskip-fast / no-cu-lossless / b-intra / no-splitrd-skip / rdpenalty=0 / psy-rd=2.00 / psy-rdoq=0.00 / no-rd-refine / no-lossless / cbqpoffs=0 / crqpoffs=0 / rc=abr / bitrate=2200 / qcomp=0.60 / qpstep=4 / stats-write=0 / stats-read=0 / ipratio=1.40 / pbratio=1.30 / aq-mode=2 / aq-strength=1.00 / cutree / zone-count=0 / no-strict-cbr / qg-size=32 / no-rc-grain / qpmax=69 / qpmin=0 / no-const-vbv / sar=1 / overscan=0 / videoformat=5 / range=0 / colorprim=1 / transfer=1 / colormatrix=1 / chromaloc=0 / display-window=0 / cll=0,0 / min-luma=0 / max-luma=255 / log2-max-poc-lsb=8 / vui-timing-info / vui-hrd-info / slices=1 / no-opt-qp-pps / no-opt-ref-list-length-pps / no-multi-pass-opt-rps / scenecut-bias=0.05 / hist-threshold=0.03 / no-opt-cu-delta-qp / no-aq-motion / no-hdr10 / no-hdr10-opt / no-dhdr10-opt / no-idr-recovery-sei / analysis-reuse-level=0 / analysis-save-reuse-level=0 / analysis-load-reuse-level=0 / scale-factor=0 / refine-intra=0 / refine-inter=0 / refine-mv=1 / refine-ctu-distortion=0 / no-limit-sao / ctu-info=0 / no-lowpass-dct / refine-analysis-type=0 / copy-pic=1 / max-ausize-factor=1.0 / no-dynamic-refine / no-single-sei / no-hevc-aq / no-svt / no-field / qp-adaptation-range=1.00 / scenecut-aware-qp=0conformance-window-offsets / right=0 / bottom=0 / decoder-max-rate=0 / no-vbv-live-multi-pass
Default                     : Yes
Forced                      : No
Color range                 : Limited
Color primaries             : BT.709
Transfer characteristics    : BT.709
Matrix coefficients         : BT.709
Duration_Source             : General_Duration

Audio
ID                          : 2
Format                      : AC-3
Format/Info                 : Audio Coding 3
Commercial name             : Dolby Digital
Codec ID                    : A_AC3
Duration                    : 1 h 32 min
Bit rate mode               : Constant
Bit rate                    : 448 kb/s
Channel(s)                  : 6 channels
Channel layout              : L R C LFE Ls Rs
Sampling rate               : 48.0 kHz
Frame rate                  : 31.250 FPS (1536 SPF)
Compression mode            : Lossy
Delay relative to video     : -5 ms
Stream size                 : 295 MiB (17%)
Title                       : iTA AC3 5.1
Language                    : Italian
Service kind                : Complete Main
Default                     : Yes
Forced                      : No

Text
ID                          : 3
Format                      : PGS
Codec ID                    : S_HDMV/PGS
Codec ID/Info               : Picture based subtitle format used on BDs/HD-DVDs
Duration                    : 1 h 26 min
Title                       : iTA NON UDENTI - PGS
Language                    : Italian
Default                     : No
Forced                      : No

Menu
00:00:00.000                : :Capitolo 01
00:09:05.250                : :Capitolo 02
00:16:02.000                : :Capitolo 03
00:23:16.708                : :Capitolo 04
00:30:52.042                : :Capitolo 05
00:36:34.083                : :Capitolo 06
00:43:34.792                : :Capitolo 07
00:50:31.917                : :Capitolo 08
01:00:00.000                : :Capitolo 09
01:07:34.167                : :Capitolo 10
01:16:21.833                : :Capitolo 11
01:24:26.083                : :Capitolo 12
Info: Per scaricare devi usare un client come uTorrent o Transmission
AnnounceURL
udp://tracker.torrent.eu.org:451/announce
Hash 3756189ef2e3f993fc2cf5e63a48f874c496f1ac
Peers seeds: 45 , leech: 2
Size 1.71 GB
Completato 1323x
Aggiunto 14.05.22 - 12:05:56
Uploader   jeddak1
Votazione (Voti: 0)


Condividi questo bittorrent:


html/blog:


bbcode/forum:




Aggiungi Commento