* Dettagli Torrent   globale  | Commenti (0) 


- Mulholland.Drive.2001.iTA.ENG.AC3.SUB.iTA.ENG.BluRay.HEVC.1080p.x265.jeddak-MIRCrew -


Download via torrent:
Categoria bittorrent BDRip
Descrizione





Mulholland Drive


Titolo originale: Mulholland Drive
Genere: Drammatico, Giallo, Thriller
Anno: 2001
Regia: David Lynch
Attori: Naomi Watts, Laura Harring, Ann Miller, Justin Theroux, Chad Everett, Billy Ray Cyrus, Robert Forster, Mark Pellegrino
Paese: Francia, USA
Durata: 146 min
Distribuzione: 01 Distribution
Sceneggiatura: David Lynch
Fotografia: Peter Deming
Montaggio: Mary Sweeney
Musiche: David Lynch, John Neff, Angelo Badalamenti
Produzione: Les Films Alain Sarde, Asymmetrical Productions, Babbo Inc., Canal+



Mulholland Drive, film diretto da David Lynch, racconta la storia dell’amicizia tra Betty Elms (Naomi Watts), aspirante attrice appena approdata a Hollywood, e Rita (Laura Harring), una donna affetta da amnesia in seguito a un incidente d’auto su Mulholland Drive. Tutto ha inizio subito dopo il sinistro, quando la sopravvissuta, in forte stato di shock, si rifugia nel giardino di una villa dove si addormenta. Al suo risveglio, decide di entrare nell’abitazione dove poco dopo irrompe Betty che, sorpresa di trovare un’intrusa in casa di sua zia Ruth, cerca di capire di chi si tratti. Quando scopre che ha di fronte a una donna colpita da amnesia, decide di aiutarla a recuperare la memoria. Così comincia a curiosare tra i suoi effetti personali e trova nella borsa un’ingente somma di denaro e una strana chiave blu.
Nel frattempo sul set il regista Adam Kesher (Justin Theroux) viene minacciato da due mafiosi che gli ordinano di scegliere per il ruolo principale del suo film Camilla Rhodes, un’attrice sconosciuta. L’uomo non vuole accettare, ma si trova costretto a farlo quando sua moglie, che lo ha tradito, lo butta fuori casa e gli chiude il conto in banca. Intanto Betty continua ad aiutare Rita nella ricerca della memoria perduta e, mentre pranzano da Winkie's, il nome della cameriera, Diane, fa riaffiorare un ricordo legato a una certa Diane Selwyn, che le due donne si mettono subito a cercare. Quando, tuttavia, trovano il suo appartamento, scoprono il misterioso cadavere di una donna in avanzato stato di decomposizione…





















General
Unique ID                   : 184759309872137410220866867850754728857 (0x8AFF5946F09D46BA8CC7F188B6A12399)
Complete name               : Mulholland.Drive.2001.iTA.ENG.AC3.SUB.iTA.ENG.BluRay.HEVC.1080p.x265.jeddak-MIRCrew.mkv
Format                      : Matroska
Format version              : Version 2
File size                   : 3.13 GiB
Duration                    : 2 h 26 min
Overall bit rate            : 3 058 kb/s
Movie name                  : Mulholland.Drive.2001.iTA.ENG.AC3.SUB.iTA.ENG.BluRay.HEVC.1080p.x265.jeddak-MIRCrew
Encoded date                : UTC 2021-11-27 09:50:27
Writing application         : mkvmerge v5.6.0 ( 'Kenya Kane' ) built on May 27 2012 16:44:04
Writing library             : libebml v1.2.3 + libmatroska v1.3.0 / Lavf58.29.100

Video
ID                          : 1
Format                      : HEVC
Format/Info                 : High Efficiency Video Coding
Format profile              : [email protected]@Main
Codec ID                    : V_MPEGH/ISO/HEVC
Duration                    : 2 h 26 min
Bit rate                    : 2 101 kb/s
Width                       : 1 920 pixels
Height                      : 1 040 pixels
Display aspect ratio        : 1.85:1
Frame rate mode             : Constant
Frame rate                  : 23.976 (24000/1001) FPS
Color space                 : YUV
Chroma subsampling          : 4:2:0
Bit depth                   : 8 bits
Bits/(Pixel*Frame)          : 0.044
Stream size                 : 2.15 GiB (69%)
Title                       : ...::: jeddak MIRCrew :::...
Writing library             : x265 3.2.1+1-b5c86a64bbbe:[Linux][GCC 9.2.0][64 bit] 8bit+10bit+12bit
Encoding settings           : cpuid=1111039 / frame-threads=5 / wpp / no-pmode / no-pme / no-psnr / no-ssim / log-level=2 / input-csp=1 / input-res=1920x1040 / interlace=0 / total-frames=0 / level-idc=40 / high-tier=1 / uhd-bd=0 / ref=3 / no-allow-non-conformance / no-repeat-headers / annexb / no-aud / no-hrd / info / hash=0 / no-temporal-layers / open-gop / min-keyint=24 / keyint=240 / gop-lookahead=0 / bframes=4 / b-adapt=2 / b-pyramid / bframe-bias=0 / rc-lookahead=20 / lookahead-slices=6 / scenecut=40 / radl=0 / no-splice / no-intra-refresh / ctu=64 / min-cu-size=8 / no-rect / no-amp / max-tu-size=32 / tu-inter-depth=1 / tu-intra-depth=1 / limit-tu=0 / rdoq-level=0 / dynamic-rd=0.00 / no-ssim-rd / signhide / no-tskip / nr-intra=0 / nr-inter=0 / no-constrained-intra / strong-intra-smoothing / max-merge=3 / limit-refs=1 / no-limit-modes / me=1 / subme=2 / merange=57 / temporal-mvp / no-hme / weightp / no-weightb / no-analyze-src-pics / deblock=0:0 / sao / no-sao-non-deblock / rd=3 / selective-sao=4 / early-skip / rskip / no-fast-intra / no-tskip-fast / no-cu-lossless / b-intra / no-splitrd-skip / rdpenalty=0 / psy-rd=2.00 / psy-rdoq=0.00 / no-rd-refine / no-lossless / cbqpoffs=0 / crqpoffs=0 / rc=abr / bitrate=2100 / qcomp=0.60 / qpstep=4 / stats-write=0 / stats-read=0 / ipratio=1.40 / pbratio=1.30 / aq-mode=2 / aq-strength=1.00 / cutree / zone-count=0 / no-strict-cbr / qg-size=32 / no-rc-grain / qpmax=69 / qpmin=0 / no-const-vbv / sar=1 / overscan=0 / videoformat=5 / range=0 / colorprim=1 / transfer=1 / colormatrix=1 / chromaloc=0 / display-window=0 / cll=0,0 / min-luma=0 / max-luma=255 / log2-max-poc-lsb=8 / vui-timing-info / vui-hrd-info / slices=1 / no-opt-qp-pps / no-opt-ref-list-length-pps / no-multi-pass-opt-rps / scenecut-bias=0.05 / no-opt-cu-delta-qp / no-aq-motion / no-hdr / no-hdr-opt / no-dhdr10-opt / no-idr-recovery-sei / analysis-reuse-level=5 / scale-factor=0 / refine-intra=0 / refine-inter=0 / refine-mv=1 / refine-ctu-distortion=0 / no-limit-sao / ctu-info=0 / no-lowpass-dct / refine-analysis-type=0 / copy-pic=1 / max-ausize-factor=1.0 / no-dynamic-refine / no-single-sei / no-hevc-aq / no-svt / no-field / qp-adaptation-range=1.00
Default                     : Yes
Forced                      : No
Color range                 : Limited
Color primaries             : BT.709
Transfer characteristics    : BT.709
Matrix coefficients         : BT.709
Duration_Source             : General_Duration

Audio #1
ID                          : 2
Format                      : AC-3
Format/Info                 : Audio Coding 3
Commercial name             : Dolby Digital
Codec ID                    : A_AC3
Duration                    : 2 h 26 min
Bit rate mode               : Constant
Bit rate                    : 448 kb/s
Channel(s)                  : 6 channels
Channel layout              : L R C LFE Ls Rs
Sampling rate               : 48.0 kHz
Frame rate                  : 31.250 FPS (1536 SPF)
Compression mode            : Lossy
Delay relative to video     : -5 ms
Stream size                 : 470 MiB (15%)
Title                       : iTA AC3 5.1
Language                    : Italian
Service kind                : Complete Main
Default                     : Yes
Forced                      : No

Audio #2
ID                          : 3
Format                      : AC-3
Format/Info                 : Audio Coding 3
Commercial name             : Dolby Digital
Codec ID                    : A_AC3
Duration                    : 2 h 26 min
Bit rate mode               : Constant
Bit rate                    : 448 kb/s
Channel(s)                  : 6 channels
Channel layout              : L R C LFE Ls Rs
Sampling rate               : 48.0 kHz
Frame rate                  : 31.250 FPS (1536 SPF)
Compression mode            : Lossy
Delay relative to video     : -5 ms
Stream size                 : 470 MiB (15%)
Title                       : ENG AC3 5.1
Language                    : English
Service kind                : Complete Main
Default                     : No
Forced                      : No

Text #1
ID                          : 4
Format                      : PGS
Codec ID                    : S_HDMV/PGS
Codec ID/Info               : Picture based subtitle format used on BDs/HD-DVDs
Duration                    : 2 h 26 min
Title                       : iTA REGULAR - PGS
Language                    : Italian
Default                     : No
Forced                      : No

Text #2
ID                          : 5
Format                      : PGS
Codec ID                    : S_HDMV/PGS
Codec ID/Info               : Picture based subtitle format used on BDs/HD-DVDs
Title                       : ENG NON UDENTI - PGS
Language                    : English
Default                     : No
Forced                      : No

Menu
00:00:00.000                : :Capitolo 01
00:01:18.579                : :Capitolo 02
00:02:23.810                : :Capitolo 03
00:07:13.058                : :Capitolo 04
00:09:25.356                : :Capitolo 05
00:11:10.753                : :Capitolo 06
00:11:40.533                : :Capitolo 07
00:15:00.983                : :Capitolo 08
00:15:19.585                : :Capitolo 09
00:16:42.210                : :Capitolo 10
00:17:42.520                : :Capitolo 11
00:17:49.944                : :Capitolo 12
00:19:55.361                : :Capitolo 13
00:21:55.147                : :Capitolo 14
00:23:29.450                : :Capitolo 15
00:25:04.420                : :Capitolo 16
00:27:26.478                : :Capitolo 17
00:28:20.699                : :Capitolo 18
00:31:00.609                : :Capitolo 19
00:34:53.466                : :Capitolo 20
00:36:21.054                : :Capitolo 21
00:40:52.367                : :Capitolo 22
00:43:06.709                : :Capitolo 23
00:44:22.910                : :Capitolo 24
00:44:46.350                : :Capitolo 25
00:48:32.576                : :Capitolo 26
00:53:06.225                : :Capitolo 27
00:54:09.037                : :Capitolo 28
00:55:31.662                : :Capitolo 29
00:57:41.959                : :Capitolo 30
00:59:32.903                : :Capitolo 31
01:05:21.000                : :Capitolo 32
01:05:57.787                : :Capitolo 33
01:09:15.693                : :Capitolo 34
01:10:58.963                : :Capitolo 35
01:13:24.817                : :Capitolo 36
01:27:26.533                : :Capitolo 37
01:37:27.300                : :Capitolo 38
01:43:44.135                : :Capitolo 39
01:44:42.234                : :Capitolo 40
01:52:11.850                : :Capitolo 41
01:52:55.477                : :Capitolo 42
01:56:13.550                : :Capitolo 43
01:57:45.559                : :Capitolo 44
01:58:50.624                : :Capitolo 45
02:00:39.983                : :Capitolo 46
02:06:40.093                : :Capitolo 47
02:08:03.509                : :Capitolo 48
02:14:14.880                : :Capitolo 49
02:14:51.625                : :Capitolo 50
02:16:08.535                : :Capitolo 51
02:16:54.373                : :Capitolo 52
02:17:27.156                : :Capitolo 53
02:18:52.282                : :Capitolo 54
02:18:58.622                : :Capitolo 55
02:19:05.128                : :Capitolo 56
Info: Per scaricare devi usare un client come uTorrent o Transmission
AnnounceURL
udp://tracker.torrent.eu.org:451/announce
Hash 6c49d99edb1417fb3aea2b0e58014cea024431e0
Peers seeds: 40 , leech: 6
Size 3.13 GB
Completato 1403x
Aggiunto 28.11.21 - 12:11:18
Uploader   jeddak1
Votazione (Voti: 0)


Condividi questo bittorrent:


html/blog:


bbcode/forum:




Aggiungi Commento