* Dettagli Torrent   globale  | Commenti (0) 


- Philadelphia Experiment (1984) 720p h264 Ac3 Ita eng Sub Eng - MIRCrew -


Download via torrent:
Categoria bittorrent BDRip
Descrizione
The Philadelphia Experiment (1984) 720p h264 Ac3 Ita eng Sub Eng - MIRCrew



NO FOUND ONLY ORIGINAL RELEASE


My release is always in double track audio italian and Original audio
for select it use VLC or dvd player home
not use wmp


Philadelphia Experiment (1984)

Quality MIRCrew on HD 720p da 1,6 gb











Philadelphia Experiment (The Philadelphia Experiment) è un film del 1984 diretto da Stewart Raffill. La pellicola ha avuto un seguito, Philadelphia Experiment 2, distribuito nel 1993.

La trama si basa su diversi libri riguardanti il mito della scomparsa di una nave da guerra statunitense nel corso di un presunto esperimento di teletrasporto nel 1943, durante la seconda guerra mondiale, conosciuto come l'"esperimento di Filadelfia".

 

Titolo originale The Philadelphia Experiment
Paese di produzione Stati Uniti d'America
Anno 1984
Durata 102 min
Genere fantascienza
Regia Stewart Raffill
Soggetto Wallace C. Bennett, Charles Berlitz, Don Jakoby, William I. Moore
Sceneggiatura William Gray, Michael Janover
Produttore Douglas Curtis, Joel B. Michaels, Pegi Brotman
Produttore esecutivo John Carpenter
Casa di produzione New World Pictures
Distribuzione in italiano Life International
Fotografia Dick Bush
Montaggio Neil Travis
Effetti speciali Max W. Anderson, Lawrence J. Cavanaugh
Musiche Kenneth Wannberg



   Michael Paré: David Herdeg
   Nancy Allen: Allison Hayes
   Eric Christmas: dott. James Longstreet
   Bobby Di Cicco: Jim Parker
   Louise Latham: Pamela
   Kene Holliday: maggiore Clark



James Longstreet, uno scienziato statunitense, nel corso della seconda guerra mondiale effettua degli esperimenti sui campi magnetici nel tentativo di rendere invisibile una nave. Durante uno di questi esperimenti un cacciatorpediniere, la USS Eldridge, scompare, ma David e Jim, due militari della Marina militare, riescono a buttarsi fuori bordo e si ritrovano catapultati nell'anno 1986.



A United States Navy destroyer escort participates in a Navy "invisibility" experiment that inadvertently sends two sailors forty years into the future.

 

















[spoiler]General

Complete name                            : Philadelphia Experiment (1984) 720p h264 Ac3 Ita eng Sub Eng - MIRCrew.mkv
Format                                   : Matroska
Format version                           : Version 2
File size                                : 1.61 GiB
Duration                                 : 1h 41mn
Overall bit rate                         : 2 273 Kbps
Movie name                               : MIRCrew
Encoded date                             : UTC 2021-06-01T15:59:11Z
Writing application                      : mkvmerge v5.8.0 ('No Sleep / Pillow&#39 built on Sep  2 2012 15:37:04
Writing library                          : Lavf55.12.0

Video
ID                                       : 1
Format                                   : AVC
Format/Info                              : Advanced Video Codec
Format profile                           : [email protected]
Format settings, CABAC                   : Yes
Format settings, ReFrames                : 4 frames
Codec ID                                 : V_MPEG4/ISO/AVC
Duration                                 : 1h 41mn
Bit rate                                 : 1 900 Kbps
Width                                    : 1 280 pixels
Height                                   : 720 pixels
Display aspect ratio                     : 16:9
Frame rate                               : 23.976 fps
Color space                              : YUV
Chroma subsampling                       : 4:2:0
Bit depth                                : 8 bits
Scan type                                : Progressive
Bits/(Pixel*Frame)                       : 0.086
Stream size                              : 1.30 GiB (81%)
Title                                    : MIRCrew
Writing library                          : x264 core 142 r2479 dd79a61
Encoding settings                        : cabac=1 / ref=1 / deblock=1:0:0
Default                                  : Yes
Forced                                   : No
Color primaries                          : BT.709-5, BT.1361, IEC 61966-2-4, SMPTE RP177
Transfer characteristics                 : BT.709-5, BT.1361
Matrix coefficients                      : BT.709-5, BT.1361, IEC 61966-2-4 709, SMPTE RP177

Audio #1
ID                                       : 2
Format                                   : AC-3
Format/Info                              : Audio Coding 3
Mode extension                           : CM (complete main)
Codec ID                                 : A_AC3
Duration                                 : 1h 41mn
Bit rate mode                            : Constant
Bit rate                                 : 192 Kbps
Channel(s)                               : 2 channels
Channel positions                        : Front: L R
Sampling rate                            : 48.0 KHz
Bit depth                                : 16 bits
Compression mode                         : Lossy
Delay relative to video                  : -5ms
Stream size                              : 139 MiB (8%)
Title                                    : Ita Ac3
Language                                 : Italian
Default                                  : Yes
Forced                                   : No

Audio #2
ID                                       : 3
Format                                   : AC-3
Format/Info                              : Audio Coding 3
Mode extension                           : CM (complete main)
Codec ID                                 : A_AC3
Duration                                 : 1h 41mn
Bit rate mode                            : Constant
Bit rate                                 : 192 Kbps
Channel(s)                               : 2 channels
Channel positions                        : Front: L R
Sampling rate                            : 48.0 KHz
Bit depth                                : 16 bits
Compression mode                         : Lossy
Delay relative to video                  : -5ms
Stream size                              : 139 MiB (8%)
Title                                    : Eng Ac3
Language                                 : English
Default                                  : No
Forced                                   : No

Text
ID                                       : 4
Format                                   : ASS
Codec ID                                 : S_TEXT/ASS
Codec ID/Info                            : Advanced Sub Station Alpha
Compression mode                         : Lossless
Language                                 : English
Default                                  : No
Forced                                   : No


[/spoiler]



Info: Per scaricare devi usare un client come uTorrent o Transmission
AnnounceURL
udp://tracker.torrent.eu.org:451/announce
Hash 2dc0ad7c6b3763f2860e5dff3a3b1950d471309e
Peers seeds: 31 , leech: 0
Size 1.61 GB
Completato 1377x
Aggiunto 21.07.21 - 18:07:10
Uploader   robbyrs
Votazione (Voti: 0)


Condividi questo bittorrent:


html/blog:


bbcode/forum:




Aggiungi Commento