* Dettagli Torrent   globale  | Commenti (0) 


- Lupin.S01E01-05.iTA.FRE.ENG.AC3.SUB.iTA.FRE.ENG.NF.WEB-DL.x264.jeddak-MIRCrew -


Download via torrent:
Categoria bittorrent SerieTv
Descrizione





Lupin - Stagione 1


Titolo originale: Lupin
Paese: Francia
Anno: 2021
Formato: Serie TV
Genere: Azione, Drammatico, Poliziesco, Thriller
Stagioni: 1
Episodi: 10
Durata: 45 min (episodio)
Lingua originale: Francese
Ideatore: George Kay, François Uzan
Regia: Louis Leterrier, Marcela Said, Ludovic Bernard
Sceneggiatura: George Kay, François Uzan, Marie Roussin, Florent Meyer, Tigran Rosine


INTERPRETI E PERSONAGGI
Omar Sy: Assane Diop
Hervé Pierre: Hubert Pellegrini
Nicole Garcia: Anne Pellegrini
Clotilde Hesme: Juliette Pellegrini
Ludivine Sagnier: Claire
Antoine Gouy: Benjamin Ferel
Shirine Boutella: Sofia Belkacem
Soufiane Guerrab: Youssef Guedira



Lupin è una serie tv di Netflix ispirata dal mito di Arsenio Lupin, il celebre ladro gentiluomo creato dallo scrittore francese Maurice Leblanc. Ideato da George Kay e François Uzan, l'action crime drama segue la star di Quasi amici Omar Sy nei panni di Assane Diop, un giovane uomo la cui vita è stata sconvolta quando, anni prima, durante l'adolescente, suo padre è morto dopo essere stato incastrato in un crimine che non aveva commesso. Oggi, 25 anni dopo, Assane usa il libro Arsène Lupin, ladro gentiluomo, un dono misterioso, come ispirazione per vendicare il padre dall'ingiustizia subita per colpa di una ricca famiglia. Un addetto alle pulizie del Louvre, dove è circondato da opere d'arte che valgono milioni, Assane escogita un piano brillante ma fallibile e pericoloso per mettere le mani su un prezioso collier appartenuto a Maria Antonietta, messo all'asta da una fondazione. Ma non da solo. Ad aiutarlo c'è un gruppo di ladri come lui, anche se non del tutto convinti della sua strategia. Ma questo moderno Lupin sembra avere molto talento, più di un asso nella manica e diversi inganni da attuare, sebbene la polizia non tarderà a intuire il suo gioco e fare la proprie mosse. Nella serie recitano anche Hervé Pierre (L'ufficiale e la spia), Nicole Garcia, Clotilde Hesme (Les Revenants), Ludivine Sagnier (The New Pope), Antoine Gouy, Shirine Boutella e Soufiane Guerrab (Moloch).




















General
Unique ID                   : 197207115101939924387728183945134773889 (0x945CB5755D8E19F3B99B977C0D929681)
Complete name               : Lupin.1x01.Capitolo.1.iTA.FRE.ENG.AC3.SUB.iTA.FRE.ENG.NF.WEB-DL.x264.jeddak-MIRCrew.mkv
Format                      : Matroska
Format version              : Version 2
File size                   : 597 MiB
Duration                    : 47 min 14 s
Overall bit rate            : 1 767 kb/s
Movie name                  : Lupin.1x01.Capitolo.1.iTA.FRE.ENG.AC3.SUB.iTA.FRE.ENG.NF.WEB-DL.x264.jeddak-MIRCrew
Encoded date                : UTC 2021-06-10 09:42:43
Writing application         : mkvmerge v5.6.0 ( 'Kenya Kane' ) built on May 27 2012 16:44:04
Writing library             : libebml v1.2.3 + libmatroska v1.3.0 / Lavf58.29.100

Video
ID                          : 1
Format                      : AVC
Format/Info                 : Advanced Video Codec
Format profile              : [email protected]
Format settings             : CABAC / 4 Ref Frames
Format settings, CABAC      : Yes
Format settings, Reference  : 4 frames
Codec ID                    : V_MPEG4/ISO/AVC
Duration                    : 47 min 14 s
Bit rate                    : 1 156 kb/s
Nominal bit rate            : 1 250 kb/s
Width                       : 720 pixels
Height                      : 360 pixels
Display aspect ratio        : 2.000
Frame rate mode             : Constant
Frame rate                  : 25.000 FPS
Color space                 : YUV
Chroma subsampling          : 4:2:0
Bit depth                   : 8 bits
Scan type                   : Progressive
Bits/(Pixel*Frame)          : 0.178
Stream size                 : 391 MiB (65%)
Title                       : ...::: jeddak MIRCrew :::...
Writing library             : x264 core 148
Encoding settings           : cabac=1 / ref=3 / deblock=1:-1:-1 / analyse=0x1:0x111 / me=hex / subme=7 / psy=1 / psy_rd=1.00:0.15 / mixed_ref=1 / me_range=16 / chroma_me=1 / trellis=1 / 8x8dct=0 / cqm=0 / deadzone=21,11 / fast_pskip=1 / chroma_qp_offset=-3 / threads=6 / lookahead_threads=1 / sliced_threads=0 / nr=0 / decimate=1 / interlaced=0 / bluray_compat=0 / constrained_intra=0 / bframes=3 / b_pyramid=2 / b_adapt=1 / b_bias=0 / direct=1 / weightb=1 / open_gop=0 / weightp=2 / keyint=250 / keyint_min=25 / scenecut=40 / intra_refresh=0 / rc_lookahead=40 / rc=abr / mbtree=1 / bitrate=1250 / ratetol=1.0 / qcomp=0.60 / qpmin=0 / qpmax=69 / qpstep=4 / vbv_maxrate=14000 / vbv_bufsize=14000 / nal_hrd=none / filler=0 / ip_ratio=1.40 / aq=1:1.00
Default                     : Yes
Forced                      : No
Color range                 : Limited
Color primaries             : BT.709
Transfer characteristics    : BT.709
Matrix coefficients         : BT.709

Audio #1
ID                          : 2
Format                      : AC-3
Format/Info                 : Audio Coding 3
Commercial name             : Dolby Digital
Codec ID                    : A_AC3
Duration                    : 47 min 14 s
Bit rate mode               : Constant
Bit rate                    : 192 kb/s
Channel(s)                  : 2 channels
Channel layout              : L R
Sampling rate               : 48.0 kHz
Frame rate                  : 31.250 FPS (1536 SPF)
Compression mode            : Lossy
Delay relative to video     : -5 ms
Stream size                 : 64.9 MiB (11%)
Title                       : iTA AC3 2.0
Language                    : Italian
Service kind                : Complete Main
Default                     : Yes
Forced                      : No

Audio #2
ID                          : 3
Format                      : AC-3
Format/Info                 : Audio Coding 3
Commercial name             : Dolby Digital
Codec ID                    : A_AC3
Duration                    : 47 min 14 s
Bit rate mode               : Constant
Bit rate                    : 192 kb/s
Channel(s)                  : 2 channels
Channel layout              : L R
Sampling rate               : 48.0 kHz
Frame rate                  : 31.250 FPS (1536 SPF)
Compression mode            : Lossy
Delay relative to video     : -5 ms
Stream size                 : 64.9 MiB (11%)
Title                       : FRE AC3 2.0
Language                    : French
Service kind                : Complete Main
Default                     : No
Forced                      : No

Audio #3
ID                          : 4
Format                      : AC-3
Format/Info                 : Audio Coding 3
Commercial name             : Dolby Digital
Codec ID                    : A_AC3
Duration                    : 47 min 14 s
Bit rate mode               : Constant
Bit rate                    : 192 kb/s
Channel(s)                  : 2 channels
Channel layout              : L R
Sampling rate               : 48.0 kHz
Frame rate                  : 31.250 FPS (1536 SPF)
Compression mode            : Lossy
Delay relative to video     : -5 ms
Stream size                 : 64.9 MiB (11%)
Title                       : ENG AC3 2.0
Language                    : English
Service kind                : Complete Main
Default                     : No
Forced                      : No
Duration_Source             : General_Duration

Text #1
ID                          : 5
Format                      : ASS
Codec ID                    : S_TEXT/ASS
Codec ID/Info               : Advanced Sub Station Alpha
Duration                    : 46 min 14 s
Compression mode            : Lossless
Title                       : iTA FORCED
Language                    : Italian
Default                     : Yes
Forced                      : Yes

Text #2
ID                          : 6
Format                      : ASS
Codec ID                    : S_TEXT/ASS
Codec ID/Info               : Advanced Sub Station Alpha
Duration                    : 44 min 46 s
Compression mode            : Lossless
Title                       : ENG FORCED
Language                    : English
Default                     : No
Forced                      : Yes

Text #3
ID                          : 7
Format                      : ASS
Codec ID                    : S_TEXT/ASS
Codec ID/Info               : Advanced Sub Station Alpha
Duration                    : 46 min 14 s
Compression mode            : Lossless
Title                       : iTA REGULAR
Language                    : Italian
Default                     : No
Forced                      : No

Text #4
ID                          : 8
Format                      : ASS
Codec ID                    : S_TEXT/ASS
Codec ID/Info               : Advanced Sub Station Alpha
Duration                    : 44 min 46 s
Compression mode            : Lossless
Title                       : FRE NON UDENTI
Language                    : French
Default                     : No
Forced                      : No

Text #5
ID                          : 9
Format                      : ASS
Codec ID                    : S_TEXT/ASS
Codec ID/Info               : Advanced Sub Station Alpha
Duration                    : 44 min 46 s
Compression mode            : Lossless
Title                       : ENG NON UDENTI
Language                    : English
Default                     : No
Forced                      : No
Info: Per scaricare devi usare un client come uTorrent o Transmission
AnnounceURL
udp://tracker.torrent.eu.org:451/announce
Hash ed5e579ef908b710f963cddedd0e52e0b2d4ba30
Peers seeds: 20 , leech: 2
Size 2.87 GB
Completato 457x
Aggiunto 11.06.21 - 18:06:46
Uploader   jeddak1
Votazione (Voti: 0)


Condividi questo bittorrent:


html/blog:


bbcode/forum:




Aggiungi Commento