* Dettagli Torrent   globale  | Commenti (0) 


- Martin il marziano - My Favorite Martian (1999) 720p h264 Ac3 Ita Eng Sub Eng - MIRCrew -


Download via torrent:
Categoria bittorrent BDRip
Descrizione
Martin il marziano - My Favorite Martian (1999) 720p h264 Ac3 Ita Eng Sub Eng - MIRCrew



NO FOUND ONLY ORIGINAL RELEASE


My release is always in double track audio italian and Original audio
for select it use VLC or dvd player home
not use wmp


Martin il marziano - My Favorite Martian (1999)

Quality MIRCrew on HD 720p da 1,5 gb










Martin il marziano è un film del 1999 diretto dal regista Donald Petrie. È un lungometraggio tratto dalla serie televisiva statunitense Il mio amico marziano, messa in onda negli anni sessanta.

 

Titolo originale My Favorite Martian
Lingua originale inglese
Paese di produzione Stati Uniti d'America
Anno 1999
Durata 93 min
Genere commedia, fantascienza
Regia Donald Petrie
Soggetto John L. Greene
Sceneggiatura Sherri Stoner, Deanna Oliver
Musiche John Debney



   Christopher Lloyd: Zio Martin
   Jeff Daniels: Tim O'Hara
   Elizabeth Hurley: Brace Channing
   Daryl Hannah: Lizzie
   Wallace Shawn: Dr. Elliott Coleye
   Christine Ebersole: Mrs. Loraile Brown
   Michael Lerner: Mr. Channing
   Ray Walston: Armitan
   Shelley Malil: Felix
   Jeremy Hotz: Billy
   T.K. Carter: Lenny
   Steven Anthony Lawrence: Nurplex Kid
   Michael Chieffo: Earl Metz
   Troy Evans: capitano Dalton
   Arthur Senzy: comandante Murdoch
   Charles Rahi Chun: controllore radar
   Michael Dempsey: Van Gundy
   David St. James: Prescott
   Ken Thorley: manager KGSC-TV
   Tom Hallick: Howard Greenly
   Buck Kartalian: uomo muscoloso



Un giornalista televisivo di basso livello si imbatte nell'atterraggio di fortuna di un'astronave marziana, guidata da Christopher Lloyd. Il marziano è dotato di quattro braccia, quattro gambe e tre occhi, ma attraverso una gomma da masticare (nerplex) può assumere sembianze umane.



Life couldn't get much worse for News Producer Tim O'Hara. He humiliates the one he loves, Brace Channing and ends up getting fired by her father. Then, a Martian from Mars arrives in his home. The Martian adopts the name 'Uncle Martin' and becomes friends with Tim, whilst he fixes his ship.

 


















[spoiler]General

Complete name                            : Martin il marziano (1999) 720p h264 Ac3 Ita Eng Sub Eng - MIRCrewMartin il marziano (1999) 720p h264 Ac3 Ita Eng Sub Eng - MIRCrew.mkv
Format                                   : Matroska
Format version                           : Version 2
File size                                : 1.55 GiB
Duration                                 : 1h 33mn
Overall bit rate                         : 2 373 Kbps
Movie name                               :  MIRCrew
Encoded date                             : UTC 2020-11-18 12:19:49
Writing application                      : mkvmerge v5.8.0 ('No Sleep / Pillow&#39 built on Sep  2 2012 15:37:04
Writing library                          : Lavf54.63.100
COMMENT                                  : MIRCrew

Video
ID                                       : 1
Format                                   : AVC
Format/Info                              : Advanced Video Codec
Format profile                           : [email protected]
Format settings, CABAC                   : Yes
Format settings, ReFrames                : 2 frames
Codec ID                                 : V_MPEG4/ISO/AVC
Duration                                 : 1h 33mn
Bit rate                                 : 2 000 Kbps
Width                                    : 1 280 pixels
Height                                   : 688 pixels
Display aspect ratio                     : 1.852
Frame rate mode                          : Variable
Frame rate                               : 23.976 fps
Color space                              : YUV
Chroma subsampling                       : 4:2:0
Bit depth                                : 8 bits
Scan type                                : Progressive
Bits/(Pixel*Frame)                       : 0.095
Stream size                              : 1.27 GiB (82%)
Title                                    : MIRCrew
Writing library                          : x264 core 130 r2273
Encoding settings                        : cabac=1 / ref=2 / deblock=1:-1:-1 /
Language                                 : Italian
Default                                  : Yes
Forced                                   : No
DURATION                                 : 01:33:33

Audio #1
ID                                       : 2
Format                                   : AC-3
Format/Info                              : Audio Coding 3
Mode extension                           : CM (complete main)
Codec ID                                 : A_AC3
Duration                                 : 1h 33mn
Bit rate mode                            : Constant
Bit rate                                 : 192 Kbps
Channel(s)                               : 2 channels
Channel positions                        : Front: L R
Sampling rate                            : 48.0 KHz
Bit depth                                : 16 bits
Compression mode                         : Lossy
Delay relative to video                  : -5ms
Stream size                              : 129 MiB (8%)
Title                                    : Ita Ac3
Language                                 : Italian
Default                                  : Yes
Forced                                   : No
DURATION                                 : 01:33:34

Audio #2
ID                                       : 3
Format                                   : AC-3
Format/Info                              : Audio Coding 3
Mode extension                           : CM (complete main)
Codec ID                                 : A_AC3
Duration                                 : 1h 33mn
Bit rate mode                            : Constant
Bit rate                                 : 192 Kbps
Channel(s)                               : 2 channels
Channel positions                        : Front: L R
Sampling rate                            : 48.0 KHz
Bit depth                                : 16 bits
Compression mode                         : Lossy
Delay relative to video                  : -5ms
Stream size                              : 129 MiB (8%)
Title                                    : Eng Ac3
Language                                 : English
Default                                  : No
Forced                                   : No
DURATION                                 : 01:33:33

Menu
00:00:00.000                             : :1. Program Start
00:00:21.855                             : :2. Mars Probe Mission/Main Title
00:01:42.936                             : :3. KGSC Santa Barbara
00:04:34.858                             : :4. T Minus 5
00:08:12.951                             : :5. Crash Landing
00:13:59.839                             : :6. An Unexpected Visitor
00:21:33.000                             : :7. A Rude Awakening For Tim
00:27:33.861                             : :8. Shopping With Uncle Martin
00:34:53.008                             : :9. Martin Needs Nourishment
00:39:51.890                             : :10. Home Movies
00:48:34.829                             : :11. Going to Pieces
00:56:55.829                             : :12. Don't Send Us to the Shrink
00:58:55.949                             : :13. The Story of the Century
01:04:15.935                             : :14. Rummage Sale Bound
01:06:27.859                             : :15. Down the Drain
01:10:21.884                             : :16. Captured
01:13:37.872                             : :17. Zoot to the Rescue
01:17:23.973                             : :18. The Escape
01:25:33.879                             : :19. Martin Defects
01:27:47.846                             : :20. End Credits


[/spoiler]



Info: Per scaricare devi usare un client come uTorrent o Transmission
AnnounceURL
udp://tracker.torrent.eu.org:451/announce
Hash 239b02b62983a9e4e2bfc492c02c690eb46a56b2
Peers seeds: 13 , leech: 2
Size 1.55 GB
Completato 575x
Aggiunto 07.06.21 - 18:06:50
Uploader   robbyrs
Votazione (Voti: 0)


Condividi questo bittorrent:


html/blog:


bbcode/forum:




Aggiungi Commento