* Dettagli Torrent   globale  | Commenti (0) 


- Into The Storm (2014) 1080p H264 Ac3 5.1 Ita Eng Sub Ita Eng - MIRCrew -


Download via torrent:
Categoria bittorrent BDRip
Descrizione
Into The Storm (2014 ) 1080p H264 Ac3 5.1 Ita Eng Sub Ita Eng - MIRCrew


NO FOUND ONLY ORIGINAL RELEASE


My release is always in double track audio italian and Original audio
for select it use VLC or dvd player home
not use wmp

Into The Storm (2014 )

Quality MIRCrew on HD 1080p da 2,1 gb








 

Titolo originale Into The Storm
Lingua originale Inglese
Paese di produzione Stati Uniti d'America
Anno 2014
Durata 89 min
Genere azione, catastrofico, thriller
Regia Steven Quale
Sceneggiatura John Swetnam



   Richard Armitage: Gary Fuller
   Sarah Wayne Callies: Allison Stone
   Nathan Kress: Trey Fuller
   Arlen Escarpeta: Daryl
   Matt Walsh: Pete
   Max Deacon: Donnie Fuller
   Alycia Debnam-Carey: Kaitlyn
   Jeremy Sumpter: Jacob
   Kyle Davis: Donk
   Scott Lawrence: Preside Thomas Walker
   Jon Reep: Reevis
   David Drumm: Chester
   Steve Garagiola: News Anchor
   Brandon Ruiter: Todd White



Di sera, dentro ad una vettura, si trovano 4 studenti liceali che avvistano di fronte a loro un tornado F2, uno di loro scende per riprenderlo ma il vortice si avvicina troppo e li travolge, uccidendoli. Nella cittadina di Silverton, arriva un gruppo di cacciatori di tornado che, dopo un po', riesce a trovare e ad intercettare un tornado F3 il quale, dopo aver cambiato direzione, colpisce la scuola della cittadina, dove si sta tenendo una cerimonia per i diplomati



Storm trackers, thrill-seekers, and everyday townspeople document an unprecedented onslaught of tornadoes touching down in the town of Silverton.

 















General

Complete name                            : Into The Storm (2014 ) 1080p H264 Ac3 5.1 Ita Eng Sub Ita Eng - MIRCrewInto The Storm (2014 ) 1080p H264 Ac3 5.1 Ita Eng Sub Ita Eng - MIRCrew.mkv
Format                                   : Matroska
Format version                           : Version 2
File size                                : 2.13 GiB
Duration                                 : 1h 29mn
Overall bit rate                         : 3 418 Kbps
Movie name                               : MIRCrew
Encoded date                             : UTC 2021-06-05T13:55:58Z
Writing application                      : mkvmerge v5.8.0 ('No Sleep / Pillow&#39 built on Sep  2 2012 15:37:04
Writing library                          : Lavf55.12.0

Video
ID                                       : 1
Format                                   : AVC
Format/Info                              : Advanced Video Codec
Format profile                           : [email protected]
Format settings, CABAC                   : Yes
Format settings, ReFrames                : 4 frames
Codec ID                                 : V_MPEG4/ISO/AVC
Duration                                 : 1h 29mn
Bit rate                                 : 2 600 Kbps
Width                                    : 1 920 pixels
Height                                   : 1 072 pixels
Display aspect ratio                     : 16:9
Frame rate                               : 23.976 fps
Color space                              : YUV
Chroma subsampling                       : 4:2:0
Bit depth                                : 8 bits
Scan type                                : Progressive
Bits/(Pixel*Frame)                       : 0.053
Stream size                              : 1.57 GiB (74%)
Title                                    : MIRCrew
Writing library                          : x264 core 142 r2479 dd79a61
Encoding settings                        : cabac=1 / ref=1 / deblock=1:0:0
Language                                 : Italian
Default                                  : Yes
Forced                                   : No
Color primaries                          : BT.709-5, BT.1361, IEC 61966-2-4, SMPTE RP177
Transfer characteristics                 : BT.709-5, BT.1361
Matrix coefficients                      : BT.709-5, BT.1361, IEC 61966-2-4 709, SMPTE RP177

Audio #1
ID                                       : 2
Format                                   : AC-3
Format/Info                              : Audio Coding 3
Mode extension                           : CM (complete main)
Codec ID                                 : A_AC3
Duration                                 : 1h 29mn
Bit rate mode                            : Constant
Bit rate                                 : 448 Kbps
Channel(s)                               : 6 channels
Channel positions                        : Front: L C R, Side: L R, LFE
Sampling rate                            : 48.0 KHz
Bit depth                                : 16 bits
Compression mode                         : Lossy
Delay relative to video                  : -83ms
Stream size                              : 286 MiB (13%)
Title                                    : Ita Ac3 5.1
Language                                 : Italian
Default                                  : Yes
Forced                                   : No

Audio #2
ID                                       : 3
Format                                   : AC-3
Format/Info                              : Audio Coding 3
Mode extension                           : CM (complete main)
Codec ID                                 : A_AC3
Duration                                 : 1h 29mn
Bit rate mode                            : Constant
Bit rate                                 : 384 Kbps
Channel(s)                               : 6 channels
Channel positions                        : Front: L C R, Side: L R, LFE
Sampling rate                            : 48.0 KHz
Bit depth                                : 16 bits
Compression mode                         : Lossy
Delay relative to video                  : -5ms
Stream size                              : 245 MiB (11%)
Title                                    : Eng Ac3 5.1
Language                                 : English
Default                                  : No
Forced                                   : No

Text #1
ID                                       : 4
Format                                   : VobSub
Codec ID                                 : S_VOBSUB
Codec ID/Info                            : The same subtitle format used on DVDs
Language                                 : Italian
Default                                  : Yes
Forced                                   : No

Text #2
ID                                       : 5
Format                                   : VobSub
Codec ID                                 : S_VOBSUB
Codec ID/Info                            : The same subtitle format used on DVDs
Language                                 : Italian
Default                                  : No
Forced                                   : No

Text #3
ID                                       : 6
Format                                   : VobSub
Codec ID                                 : S_VOBSUB
Codec ID/Info                            : The same subtitle format used on DVDs
Language                                 : English
Default                                  : No
Forced                                   : No

Menu
00:00:00.000                             : :00:00:00.000
00:09:37.368                             : :00:09:37.202
00:19:58.238                             : :00:19:58.030
00:29:52.374                             : :00:29:52.249
00:38:48.534                             : :00:38:48.409
00:47:59.209                             : :00:47:59.085
01:00:39.219                             : :01:00:39.010
01:08:59.635                             : :01:08:59.510
01:19:59.920                             : :01:19:59.753
01:23:58.825                             : :01:23:58.700






Info: Per scaricare devi usare un client come uTorrent o Transmission
AnnounceURL
udp://tracker.torrent.eu.org:451/announce
Hash 46d2c63dc7a1a9cc2c03c0adeb788ef96a608d20
Peers seeds: 29 , leech: 0
Size 2.13 GB
Completato 1234x
Aggiunto 07.06.21 - 16:06:20
Uploader   robbyrs
Votazione (Voti: 0)


Condividi questo bittorrent:


html/blog:


bbcode/forum:




Aggiungi Commento