* Dettagli Torrent   globale  | Commenti (0) 


- Monster Hunter (2020) 1080p H264.Ac3 5.1 Ita Eng Sub Ita Eng-MIRCrew -


Download via torrent:
Categoria bittorrent BDRip
Descrizione
Monster Hunter (2020) 1080p H264.Ac3 5.1 Ita Eng Sub Ita Eng-MIRCrew





NO FOUND ONLY ORIGINAL RELEASE

My release is always in double track audio italian and Original audio
for select it use VLC or dvd player home
not use wmp

Monster Hunter (2020)

Quality MIRCrew in HD 1080p da  2,6 gb










Lingua originale inglese
Paese di produzione Stati Uniti d'America, Cina, Germania, Giappone
Anno 2020
Durata 99 min
Rapporto 2,35:1
Genere azione, fantastico, avventura
Regia Paul W. S. Anderson
Soggetto dalla serie di videogiochi
Sceneggiatura Paul W. S. Anderson



   Milla Jovovich: Natalie Artemis
   Tony Jaa: il cacciatore
   Ron Perlman: l'ammiraglio
   T.I.: Lincoln
   Diego Boneta: Marshall
   Meagan Good: Dash
   Josh Helman: Steeler
   Jin Au-Yeung: Axe
   Hirona Yamazaki: Handler
   Jannik Schümann: Aiden
   Nanda Costa: Lea
   Nic Rasenti: capitano Roark
   Aaron Beelner: Palico



Una forza militare d'élite, guidata da Natalie Artemis, cade attraverso un portale in un mondo popolato da mostri giganti. Lì incontrano un cacciatore che li aiuta a sopravvivere nel mondo e a combattere contro le enormi bestie mentre cercano una via di casa.



When Lt. Artemis and her loyal soldiers are transported to a new world, they engage in a desperate battle for survival against enormous enemies with incredible powers. Feature film based on the video game by Capcom.

 


















[spoiler]General

Complete name                            : Monster Hunter (2020) 1080p H264.Ac3 5.1 Ita Eng Sub Ita Eng-MIRCrewMonster Hunter (2020) 1080p H264.Ac3 5.1 Ita Eng Sub Ita Eng-MIRCrew.mkv
Format                                   : Matroska
Format version                           : Version 2
File size                                : 2.61 GiB
Duration                                 : 1h 43mn
Overall bit rate                         : 3 629 Kbps
Movie name                               : MIRCrew
Encoded date                             : UTC 2021-02-23 19:04:21
Writing application                      : mkvmerge v5.8.0 ('No Sleep / Pillow&#39 built on Sep  2 2012 15:37:04
Writing library                          : Lavf54.63.100
COMMENT                                  : MIRCrew

Video
ID                                       : 1
Format                                   : AVC
Format/Info                              : Advanced Video Codec
Format profile                           : [email protected]
Format settings, CABAC                   : Yes
Format settings, ReFrames                : 2 frames
Codec ID                                 : V_MPEG4/ISO/AVC
Duration                                 : 1h 43mn
Bit rate                                 : 2 469 Kbps
Nominal bit rate                         : 2 600 Kbps
Width                                    : 1 920 pixels
Height                                   : 800 pixels
Display aspect ratio                     : 2.40:1
Frame rate mode                          : Variable
Frame rate                               : 23.976 fps
Color space                              : YUV
Chroma subsampling                       : 4:2:0
Bit depth                                : 8 bits
Scan type                                : Progressive
Bits/(Pixel*Frame)                       : 0.067
Stream size                              : 1.78 GiB (68%)
Title                                    : MIRCrew
Writing library                          : x264 core 130 r2273
Encoding settings                        : cabac=1 / ref=2 / deblock=1:-1:-1 / analyse=0x1:0x131 / me=hex / subme=7 / psy=1 / psy_rd=1.00:0.10 / mixed_ref=0 / me_range=16 / chroma_me=1 / trellis=1 / 8x8dct=0 / cqm=0 / deadzone=21,11 / fast_pskip=1 / chroma_qp_offset=-3 / threads=9 / lookahead_threads=1 / sliced_threads=0 / nr=0 / decimate=1 / interlaced=0 / bluray_compat=0 / constrained_intra=0 / bframes=3 / b_pyramid=0 / b_adapt=1 / b_bias=0 / direct=3 / weightb=1 / open_gop=0 / weightp=2 / keyint=230 / keyint_min=23 / scenecut=40 / intra_refresh=0 / rc_lookahead=40 / rc=abr / mbtree=1 / bitrate=2600 / ratetol=1.0 / qcomp=0.60 / qpmin=10 / qpmax=69 / qpstep=4 / vbv_maxrate=24000 / vbv_bufsize=24000 / nal_hrd=none / ip_ratio=1.40 / aq=1:1.00
Language                                 : Italian
Default                                  : Yes
Forced                                   : No

Audio #1
ID                                       : 2
Format                                   : AC-3
Format/Info                              : Audio Coding 3
Mode extension                           : CM (complete main)
Codec ID                                 : A_AC3
Duration                                 : 1h 43mn
Bit rate mode                            : Constant
Bit rate                                 : 640 Kbps
Channel(s)                               : 6 channels
Channel positions                        : Front: L C R, Side: L R, LFE
Sampling rate                            : 48.0 KHz
Bit depth                                : 16 bits
Compression mode                         : Lossy
Delay relative to video                  : -18ms
Stream size                              : 472 MiB (18%)
Title                                    : Ita Ac3 5.1
Language                                 : English
Default                                  : Yes
Forced                                   : No

Audio #2
ID                                       : 3
Format                                   : AC-3
Format/Info                              : Audio Coding 3
Mode extension                           : CM (complete main)
Codec ID                                 : A_AC3
Duration                                 : 1h 43mn
Bit rate mode                            : Constant
Bit rate                                 : 448 Kbps
Channel(s)                               : 6 channels
Channel positions                        : Front: L C R, Side: L R, LFE
Sampling rate                            : 48.0 KHz
Bit depth                                : 16 bits
Compression mode                         : Lossy
Delay relative to video                  : -5ms
Stream size                              : 330 MiB (12%)
Title                                    : Eng Ac3 5.1
Language                                 : English
Default                                  : No
Forced                                   : No

Menu
00:00:00.000                             : :1
00:05:57.000                             : :2
00:09:53.000                             : :3
00:15:00.000                             : :4
00:21:10.000                             : :5
00:24:50.000                             : :6
00:31:43.000                             : :7
00:41:00.000                             : :8
00:49:05.000                             : :9
00:56:04.000                             : :10
01:02:48.000                             : :11
01:08:55.000                             : :12
01:14:08.000                             : :13
01:21:13.000                             : :14
01:26:32.000                             : :15
01:31:15.000                             : :16




[/spoiler]





Info: Per scaricare devi usare un client come uTorrent o Transmission
AnnounceURL
udp://tracker.torrent.eu.org:451/announce
Hash e58347836ff080b2daf8c1469c59292a3170f99d
Peers seeds: 47 , leech: 15
Size 2.61 GB
Completato 1710x
Aggiunto 07.04.21 - 18:04:08
Uploader   robbyrs
Votazione (Voti: 0)


Condividi questo bittorrent:


html/blog:


bbcode/forum:




Aggiungi Commento