* Dettagli Torrent   globale  | Commenti (0) 


- Vivarium (2019) 1080p h264 Ac3 Ita Eng Sub NUita Ita-MIRCrew -


Download via torrent:
Categoria bittorrent BDRip
Descrizione
Vivarium (2019) 1080p h264 Ac3 Ita Eng Sub NUita Ita-MIRCrew




NO FOUND ONLY ORIGINAL RELEASE

My release is always in double track audio italian and Original audio
for select it use VLC or dvd player home
not use wmp

Vivarium (2019)

Quality MIRCrew in HD 1080p da  2,4 gb









Lingua originale inglese
Paese di produzione Irlanda, Danimarca, Belgio
Anno 2019
Durata 94 minuti
Genere drammatico, fantascienza, thriller
Regia Lorcan Finnegan
Soggetto Garrett Shanley Lorcan Finnegan
Sceneggiatura Garrett Shanley



   Imogen Poots: Gemma
   Jesse Eisenberg: Tom
   Jonathan Aris: Martin
   Senan Jennings: Il bambino
   Eanna Hardwicke: Il ragazzo / Nuovo Martin



Gemma e Tom sono una giovane coppia alla ricerca di una casa per cominciare una nuova vita insieme. Si recano presso una strana agenzia immobiliare dove ad accoglierli trovano Martin, che racconta loro di un nuovo quartiere in costruzione nella vicina periferia chiamato Yonder



A young couple looking for the perfect home find themselves trapped in a mysterious labyrinth-like neighborhood of identical house

 














[spoiler]General

Complete name                            : Vivarium (2019) 1080p h264.Ac3 Ita Eng Sub Ita-MIRCrewVivarium (2019) 1080p h264.Ac3 Ita Eng Sub Ita-MIRCrew.mkv
Format                                   : Matroska
Format version                           : Version 2
File size                                : 2.33 GiB
Duration                                 : 1h 38mn
Overall bit rate                         : 3 394 Kbps
Movie name                               : MIRCrew
Encoded date                             : UTC 2021-01-29 16:15:06
Writing application                      : Lavf54.63.100
Writing library                          : Lavf54.63.100
COMMENT                                  : MIRCrew

Video
ID                                       : 1
Format                                   : AVC
Format/Info                              : Advanced Video Codec
Format profile                           : [email protected]
Format settings, CABAC                   : Yes
Format settings, ReFrames                : 2 frames
Codec ID                                 : V_MPEG4/ISO/AVC
Duration                                 : 1h 38mn
Bit rate                                 : 2 430 Kbps
Nominal bit rate                         : 2 600 Kbps
Width                                    : 1 920 pixels
Height                                   : 800 pixels
Display aspect ratio                     : 2.40:1
Frame rate mode                          : Variable
Frame rate                               : 24.000 fps
Color space                              : YUV
Chroma subsampling                       : 4:2:0
Bit depth                                : 8 bits
Scan type                                : Progressive
Bits/(Pixel*Frame)                       : 0.066
Stream size                              : 1.67 GiB (72%)
Writing library                          : x264 core 130 r2273
Encoding settings                        : cabac=1 / ref=2 / deblock=1:-1:-1 / analyse=0x1:0x131 / me=hex / subme=7 / psy=1 / psy_rd=1.00:0.10 / mixed_ref=0 / me_range=16 / chroma_me=1 / trellis=1 / 8x8dct=0 / cqm=0 / deadzone=21,11 / fast_pskip=1 / chroma_qp_offset=-3 / threads=9 / lookahead_threads=1 / sliced_threads=0 / nr=0 / decimate=1 / interlaced=0 / bluray_compat=0 / constrained_intra=0 / bframes=3 / b_pyramid=0 / b_adapt=1 / b_bias=0 / direct=3 / weightb=1 / open_gop=0 / weightp=2 / keyint=240 / keyint_min=24 / scenecut=40 / intra_refresh=0 / rc_lookahead=40 / rc=abr / mbtree=1 / bitrate=2600 / ratetol=1.0 / qcomp=0.60 / qpmin=10 / qpmax=69 / qpstep=4 / vbv_maxrate=24000 / vbv_bufsize=24000 / nal_hrd=none / ip_ratio=1.40 / aq=1:1.00
Language                                 : Italian
Default                                  : Yes
Forced                                   : No
DURATION                                 : 01:38:15.042000000
NUMBER_OF_FRAMES                         : 141481
NUMBER_OF_BYTES                          : 5951948891
_STATISTICS_WRITING_APP                  : mkvmerge v45.0.0 ('Heaven in Pennies&#39 64-bit
_STATISTICS_WRITING_DATE_UTC             : 2021-01-29 16:15:06
_STATISTICS_TAGS                         : BPS DURATION NUMBER_OF_FRAMES NUMBER_OF_BYTES

Audio #1
ID                                       : 2
Format                                   : AC-3
Format/Info                              : Audio Coding 3
Mode extension                           : CM (complete main)
Codec ID                                 : A_AC3
Duration                                 : 1h 38mn
Bit rate mode                            : Constant
Bit rate                                 : 448 Kbps
Channel(s)                               : 6 channels
Channel positions                        : Front: L C R, Side: L R, LFE
Sampling rate                            : 48.0 KHz
Bit depth                                : 16 bits
Compression mode                         : Lossy
Delay relative to video                  : 1mn 5s
Stream size                              : 315 MiB (13%)
Language                                 : Italian
Default                                  : No
Forced                                   : No
DURATION                                 : 01:38:15.104000000
NUMBER_OF_FRAMES                         : 184222
NUMBER_OF_BYTES                          : 471608320
_STATISTICS_WRITING_APP                  : mkvmerge v45.0.0 ('Heaven in Pennies&#39 64-bit
_STATISTICS_WRITING_DATE_UTC             : 2021-01-29 16:15:06
_STATISTICS_TAGS                         : BPS DURATION NUMBER_OF_FRAMES NUMBER_OF_BYTES

Audio #2
ID                                       : 3
Format                                   : AC-3
Format/Info                              : Audio Coding 3
Mode extension                           : CM (complete main)
Codec ID                                 : A_AC3
Duration                                 : 1h 38mn
Bit rate mode                            : Constant
Bit rate                                 : 448 Kbps
Channel(s)                               : 6 channels
Channel positions                        : Front: L C R, Side: L R, LFE
Sampling rate                            : 48.0 KHz
Bit depth                                : 16 bits
Compression mode                         : Lossy
Delay relative to video                  : 1mn 5s
Stream size                              : 315 MiB (13%)
Language                                 : English
Default                                  : No
Forced                                   : No
DURATION                                 : 01:38:15.094000000
NUMBER_OF_FRAMES                         : 552665
NUMBER_OF_BYTES                          : 1111962048
_STATISTICS_WRITING_APP                  : mkvmerge v45.0.0 ('Heaven in Pennies&#39 64-bit
_STATISTICS_WRITING_DATE_UTC             : 2021-01-29 16:15:06
_STATISTICS_TAGS                         : BPS DURATION NUMBER_OF_FRAMES NUMBER_OF_BYTES

Text #1
ID                                       : 4
Format                                   : UTF-8
Codec ID                                 : S_TEXT/UTF8
Codec ID/Info                            : UTF-8 Plain Text
Title                                    : FORCED
Language                                 : Italian
Default                                  : Yes
Forced                                   : No
DURATION                                 : 01:20:21.790000000
NUMBER_OF_FRAMES                         : 9
NUMBER_OF_BYTES                          : 193
_STATISTICS_WRITING_APP                  : mkvmerge v45.0.0 ('Heaven in Pennies&#39 64-bit
_STATISTICS_WRITING_DATE_UTC             : 2021-01-29 16:15:06
_STATISTICS_TAGS                         : BPS DURATION NUMBER_OF_FRAMES NUMBER_OF_BYTES

Text #2
ID                                       : 5
Format                                   : UTF-8
Codec ID                                 : S_TEXT/UTF8
Codec ID/Info                            : UTF-8 Plain Text
Title                                    : REGOLARI
Language                                 : Italian
Default                                  : No
Forced                                   : No
DURATION                                 : 01:27:07.166000000
NUMBER_OF_FRAMES                         : 483
NUMBER_OF_BYTES                          : 15045
_STATISTICS_WRITING_APP                  : mkvmerge v45.0.0 ('Heaven in Pennies&#39 64-bit
_STATISTICS_WRITING_DATE_UTC             : 2021-01-29 16:15:06
_STATISTICS_TAGS                         : BPS DURATION NUMBER_OF_FRAMES NUMBER_OF_BYTES

Text #3
ID                                       : 6
Format                                   : UTF-8
Codec ID                                 : S_TEXT/UTF8
Codec ID/Info                            : UTF-8 Plain Text
Title                                    : NON UDENTI
Language                                 : Italian
Default                                  : No
Forced                                   : No
DURATION                                 : 01:29:18.917000000
NUMBER_OF_FRAMES                         : 559
NUMBER_OF_BYTES                          : 16868
_STATISTICS_WRITING_APP                  : mkvmerge v45.0.0 ('Heaven in Pennies&#39 64-bit
_STATISTICS_WRITING_DATE_UTC             : 2021-01-29 16:15:06
_STATISTICS_TAGS                         : BPS DURATION NUMBER_OF_FRAMES NUMBER_OF_BYTES

Menu
00:00:00.000                             : :Capitolo 01
00:00:57.542                             : :Capitolo 02
00:08:44.292                             : :Capitolo 03
00:17:25.083                             : :Capitolo 04
00:25:00.000                             : :Capitolo 05
00:31:32.250                             : :Capitolo 06
00:38:12.667                             : :Capitolo 07
00:47:49.958                             : :Capitolo 08
00:56:25.417                             : :Capitolo 09
01:03:17.875                             : :Capitolo 10
01:11:55.875                             : :Capitolo 11
01:20:45.000                             : :Capitolo 12
01:31:50.250                             : :Capitolo 13




[/spoiler]





Info: Per scaricare devi usare un client come uTorrent o Transmission
AnnounceURL
udp://tracker.coppersurfer.tk:6969/announce
Hash cd0a6bbcdc7901394cda2e8ceec3f0ee5d46d9a2
Peers seeds: 0 , leech: 0
Size 2.33 GB
Completato 0x
Aggiunto 22.02.21 - 19:02:39
Uploader   robbyrs
Votazione (Voti: 0)


Condividi questo bittorrent:


html/blog:


bbcode/forum:




Aggiungi Commento