* Dettagli Torrent   globale  | Commenti (0) 


- L.Uomo.Della.Pioggia.The.Rainmaker.1997.iTA.ENG.AC3.SUB.iTA.ENG.BluRay.HEVC.1080p.x265.jeddak-MIRCre -


Download via torrent:
Categoria bittorrent BDRip
Descrizione
 




L'Uomo Della Pioggia - The Rainmaker


Genere: Thriller, Drammatico
Anno: 1997
Regia: Francis Ford Coppola
Attori: Matt Damon, Mickey Rourke, Claire Danes, Danny De Vito, Jon Voight, Mary Kay Place, Dean Stockwell, Virginia Madsen, Roy Scheider, Teresa Wright, Danny Glover, Red West, Johnny Whitworth, Andrew Shue
Paese: USA
Durata: 135 min
Distribuzione: Medusa Film
Sceneggiatura: Francis Ford Coppola
Fotografia: John Toll
Montaggio: Barry Malkin
Musiche: Elmer Bernstein
Produzione: Douglas/reuther - American Zoetrope



L'uomo della pioggia, film drammatico diretto da Francis Ford Coppola e tratto dall’omonimo libro di John Grisham, segue le vicende di un giovane avvocato alle prime armi, Rudy Baylor (Matt Damon) che deve fare i conti con le ingiustizie di una società che privilegia i potenti. Per sbarcare il lunario accetta cause di ogni tipo, spesso impossibili, difendendo clienti non sempre troppo raccomandabili. Quando viene assunto nello studio di Bruiser Stone (Mickey Rourke), il protagonista conosce Deck Shifflet (Danny DeVito), un praticante che non ha mai passato l’esame di abilitazione, ma che saprà guidarlo con la sua esperienza in quella che sarà la causa più importante della sua carriera.
Rudy, infatti, decide di assumere il caso di Dot Black (Mary Kay Place), madre sola, con un figlio che sta morendo di leucemia, al quale l’assicurazione rifiuta di pagare un risarcimento per le cure. Per dedicarsi completamente alla causa, il giovane avvocato lascia lo studio di Bruiser e si mette in proprio, insieme al collega Deck. La società assicurativa che ha deciso di sfidare, però, è la Great Benefit, una delle più potenti d’America. Rudy non molla e passa le sue giornate a cercare indizi e prove che mettano in difficoltà il legale avversario, Leo F. Drummond (Jon Voight), uno dei migliori difensori di tutto il sistema giudiziario. La vita di Rudy è sempre più tormentata, tra la causa che lo assorbe completamente e l’incontro con una ragazza di cui si innamora, Kelly Riker (Claire Danes), vittima di violenza da parte del marito. Riuscirà a battere la Great Benefit e ottenere giustizia per la famiglia Black?





















General
Unique ID                   : 212243645001873788292445884286811007808 (0x9FACA39EC7014F93BE194CE9E1DC6B40)
Complete name               : L.Uomo.Della.Pioggia.The.Rainmaker.1997.iTA.ENG.AC3.SUB.iTA.ENG.BluRay.HEVC.1080p.x265.jeddak-MIRCrew.mkv
Format                      : Matroska
Format version              : Version 2
File size                   : 2.68 GiB
Duration                    : 2 h 15 min
Overall bit rate            : 2 836 kb/s
Movie name                  : L.Uomo.Della.Pioggia.The.Rainmaker.1997.iTA.ENG.AC3.SUB.iTA.ENG.BluRay.HEVC.1080p.x265.jeddak-MIRCrew
Encoded date                : UTC 2021-02-20 09:49:13
Writing application         : mkvmerge v5.6.0 ('Kenya Kane&#39 built on May 27 2012 16:44:04
Writing library             : libebml v1.2.3 + libmatroska v1.3.0 / Lavf58.29.100

Video
ID                          : 1
Format                      : HEVC
Format/Info                 : High Efficiency Video Coding
Format profile              : [email protected]@Main
Codec ID                    : V_MPEGH/ISO/HEVC
Duration                    : 2 h 15 min
Bit rate                    : 2 139 kb/s
Width                       : 1 920 pixels
Height                      : 818 pixels
Display aspect ratio        : 2.35:1
Frame rate mode             : Constant
Frame rate                  : 23.976 (24000/1001) FPS
Color space                 : YUV
Chroma subsampling          : 4:2:0
Bit depth                   : 8 bits
Bits/(Pixel*Frame)          : 0.057
Stream size                 : 2.02 GiB (75%)
Title                       : ...::: jeddak MIRCrew :::...
Writing library             : x265 3.2.1+1-b5c86a64bbbe:[Linux][GCC 9.2.0][64 bit] 8bit+10bit+12bit
Encoding settings           : cpuid=1111039 / frame-threads=5 / wpp / no-pmode / no-pme / no-psnr / no-ssim / log-level=2 / input-csp=1 / input-res=1920x818 / interlace=0 / total-frames=0 / level-idc=40 / high-tier=1 / uhd-bd=0 / ref=3 / no-allow-non-conformance / no-repeat-headers / annexb / no-aud / no-hrd / info / hash=0 / no-temporal-layers / open-gop / min-keyint=24 / keyint=240 / gop-lookahead=0 / bframes=4 / b-adapt=2 / b-pyramid / bframe-bias=0 / rc-lookahead=20 / lookahead-slices=5 / scenecut=40 / radl=0 / no-splice / no-intra-refresh / ctu=64 / min-cu-size=8 / no-rect / no-amp / max-tu-size=32 / tu-inter-depth=1 / tu-intra-depth=1 / limit-tu=0 / rdoq-level=0 / dynamic-rd=0.00 / no-ssim-rd / signhide / no-tskip / nr-intra=0 / nr-inter=0 / no-constrained-intra / strong-intra-smoothing / max-merge=3 / limit-refs=1 / no-limit-modes / me=1 / subme=2 / merange=57 / temporal-mvp / no-hme / weightp / no-weightb / no-analyze-src-pics / deblock=0:0 / sao / no-sao-non-deblock / rd=3 / selective-sao=4 / early-skip / rskip / no-fast-intra / no-tskip-fast / no-cu-lossless / b-intra / no-splitrd-skip / rdpenalty=0 / psy-rd=2.00 / psy-rdoq=0.00 / no-rd-refine / no-lossless / cbqpoffs=0 / crqpoffs=0 / rc=abr / bitrate=2200 / qcomp=0.60 / qpstep=4 / stats-write=0 / stats-read=0 / ipratio=1.40 / pbratio=1.30 / aq-mode=2 / aq-strength=1.00 / cutree / zone-count=0 / no-strict-cbr / qg-size=32 / no-rc-grain / qpmax=69 / qpmin=0 / no-const-vbv / sar=1 / overscan=0 / videoformat=5 / range=0 / colorprim=1 / transfer=1 / colormatrix=1 / chromaloc=0 / display-window=0 / cll=0,0 / min-luma=0 / max-luma=255 / log2-max-poc-lsb=8 / vui-timing-info / vui-hrd-info / slices=1 / no-opt-qp-pps / no-opt-ref-list-length-pps / no-multi-pass-opt-rps / scenecut-bias=0.05 / no-opt-cu-delta-qp / no-aq-motion / no-hdr / no-hdr-opt / no-dhdr10-opt / no-idr-recovery-sei / analysis-reuse-level=5 / scale-factor=0 / refine-intra=0 / refine-inter=0 / refine-mv=1 / refine-ctu-distortion=0 / no-limit-sao / ctu-info=0 / no-lowpass-dct / refine-analysis-type=0 / copy-pic=1 / max-ausize-factor=1.0 / no-dynamic-refine / no-single-sei / no-hevc-aq / no-svt / no-field / qp-adaptation-range=1.00
Default                     : Yes
Forced                      : No
Color range                 : Limited
Color primaries             : BT.709
Transfer characteristics    : BT.709
Matrix coefficients         : BT.709
Duration_Source             : General_Duration

Audio #1
ID                          : 2
Format                      : AC-3
Format/Info                 : Audio Coding 3
Commercial name             : Dolby Digital
Codec ID                    : A_AC3
Duration                    : 2 h 15 min
Bit rate mode               : Constant
Bit rate                    : 192 kb/s
Channel(s)                  : 2 channels
Channel layout              : L R
Sampling rate               : 48.0 kHz
Frame rate                  : 31.250 FPS (1536 SPF)
Compression mode            : Lossy
Delay relative to video     : -5 ms
Stream size                 : 186 MiB (7%)
Title                       : iTA AC3 2.0
Language                    : Italian
Service kind                : Complete Main
Default                     : Yes
Forced                      : No

Audio #2
ID                          : 3
Format                      : AC-3
Format/Info                 : Audio Coding 3
Commercial name             : Dolby Digital
Codec ID                    : A_AC3
Duration                    : 2 h 15 min
Bit rate mode               : Constant
Bit rate                    : 448 kb/s
Channel(s)                  : 6 channels
Channel layout              : L R C LFE Ls Rs
Sampling rate               : 48.0 kHz
Frame rate                  : 31.250 FPS (1536 SPF)
Compression mode            : Lossy
Delay relative to video     : -5 ms
Stream size                 : 434 MiB (16%)
Title                       : ENG AC3 5.1
Language                    : English
Service kind                : Complete Main
Default                     : No
Forced                      : No
Duration_Source             : General_Duration

Text #1
ID                          : 4
Format                      : UTF-8
Codec ID                    : S_TEXT/UTF8
Codec ID/Info               : UTF-8 Plain Text
Title                       : iTA FORCED
Language                    : Italian
Default                     : Yes
Forced                      : Yes

Text #2
ID                          : 5
Format                      : UTF-8
Codec ID                    : S_TEXT/UTF8
Codec ID/Info               : UTF-8 Plain Text
Title                       : iTA REGULAR
Language                    : Italian
Default                     : No
Forced                      : No

Text #3
ID                          : 6
Format                      : UTF-8
Codec ID                    : S_TEXT/UTF8
Codec ID/Info               : UTF-8 Plain Text
Title                       : ENG REGULAR
Language                    : English
Default                     : No
Forced                      : No

Menu
00:00:00.000                : :Capitolo 01
00:01:57.284                : :Capitolo 02
00:07:29.407                : :Capitolo 03
00:12:11.981                : :Capitolo 04
00:15:35.017                : :Capitolo 05
00:19:39.011                : :Capitolo 06
00:28:15.652                : :Capitolo 07
00:32:11.972                : :Capitolo 08
00:34:18.890                : :Capitolo 09
00:36:45.662                : :Capitolo 10
00:40:47.278                : :Capitolo 11
00:44:19.740                : :Capitolo 12
00:50:09.590                : :Capitolo 13
00:52:50.292                : :Capitolo 14
00:57:29.404                : :Capitolo 15
00:59:56.551                : :Capitolo 16
01:05:18.832                : :Capitolo 17
01:07:16.533                : :Capitolo 18
01:09:20.865                : :Capitolo 19
01:11:34.791                : :Capitolo 20
01:17:41.574                : :Capitolo 21
01:18:27.494                : :Capitolo 22
01:26:38.819                : :Capitolo 23
01:34:03.805                : :Capitolo 24
01:36:44.048                : :Capitolo 25
01:40:06.000                : :Capitolo 26
01:49:03.954                : :Capitolo 27
01:51:33.645                : :Capitolo 28
01:59:12.562                : :Capitolo 29
02:03:14.387                : :Capitolo 30
02:05:25.101                : :Capitolo 31
02:06:46.724                : :Capitolo 32
02:09:04.987                : :Capitolo 33
Info: Per scaricare devi usare un client come uTorrent o Transmission
AnnounceURL
udp://tracker.torrent.eu.org:451/announce
Hash 3ad1cca7c357b2fd91f8b3e0e858010db1d6ed80
Peers seeds: 19 , leech: 4
Size 2.68 GB
Completato 263x
Aggiunto 20.02.21 - 19:02:46
Uploader   jeddak1
Votazione (Voti: 0)


Condividi questo bittorrent:


html/blog:


bbcode/forum:




Aggiungi Commento