* Dettagli Torrent   globale  | Commenti (0) 


- Moonbase.8.S01E02.Rats.1080p.WEBMux.ITA.ENG.DD5.1.x264-BlackBit.mkv -


Download via torrent:
Categoria bittorrent SerieTv
Descrizione


[size=36pt]Moonbase 8 - Stagione 1[/size]




Paese Stati Uniti d'America
Anno 2020
Formato serie TV
Genere commedia
Stagioni 1
Episodi 6
Lingua originale inglese



Commedia sulle avventure di tre mediocri astronauti impiegati presso il Moon Base Simulator della NASA che aspirano a migliorare la propria condizione partecipando finalmente a una vera missione sulla luna.


[spoiler]

[/spoiler]


[spoiler]
General
Unique ID : 226322442213972768503625778394106867092 (0xAA441DEA301B341E89C600CEE256AD94)
Complete name : C:UsersAdministratorVideosMoonbase 8 S01Moonbase.8.S01E01.Dry.1080p.WEBMux.ITA.ENG.DD5.1.x264-BlackBit.mkv
Format : Matroska
Format version : Version 4
File size : 2.03 GiB
Duration : 26 min 34 s
Overall bit rate : 11.0 Mb/s
Encoded date : UTC 2020-12-14 13:56:46
Writing application : mkvmerge v51.0.0 ('I Wish&#39 64-bit
Writing library : libebml v1.4.0 + libmatroska v1.6.2

Video
ID : 1
Format : AVC
Format/Info : Advanced Video Codec
Format profile : [email protected]
Format settings : CABAC / 4 Ref Frames
Format settings, CABAC : Yes
Format settings, Reference : 4 frames
Codec ID : V_MPEG4/ISO/AVC
Duration : 26 min 34 s
Bit rate : 9 928 kb/s
Width : 1 920 pixels
Height : 1 080 pixels
Display aspect ratio : 16:9
Frame rate mode : Constant
Frame rate : 23.976 (24000/1001) FPS
Color space : YUV
Chroma subsampling : 4:2:0
Bit depth : 8 bits
Scan type : Progressive
Bits/(Pixel*Frame) : 0.200
Stream size : 1.84 GiB (91%)
Default : Yes
Forced : Yes
Color range : Limited
Color primaries : BT.709
Transfer characteristics : BT.709
Matrix coefficients : BT.709

Audio #1
ID : 2
Format : AC-3
Format/Info : Audio Coding 3
Commercial name : Dolby Digital
Codec ID : A_AC3
Duration : 26 min 34 s
Bit rate mode : Constant
Bit rate : 384 kb/s
Channel(s) : 6 channels
Channel layout : L R C LFE Ls Rs
Sampling rate : 48.0 kHz
Frame rate : 31.250 FPS (1536 SPF)
Compression mode : Lossy
Stream size : 73.0 MiB (4%)
Language : Italian
Service kind : Complete Main
Default : Yes
Forced : Yes

Audio #2
ID : 3
Format : E-AC-3
Format/Info : Enhanced AC-3
Commercial name : Dolby Digital Plus
Codec ID : A_EAC3
Duration : 26 min 34 s
Bit rate mode : Constant
Bit rate : 640 kb/s
Channel(s) : 6 channels
Channel layout : L R C LFE Ls Rs
Sampling rate : 48.0 kHz
Frame rate : 31.250 FPS (1536 SPF)
Compression mode : Lossy
Delay relative to video : 19 ms
Stream size : 122 MiB (6%)
Language : English
Service kind : Complete Main
Default : No
Forced : No

Text
ID : 4
Format : UTF-8
Codec ID : S_TEXT/UTF8
Codec ID/Info : UTF-8 Plain Text
Duration : 25 min 43 s
Bit rate : 109 b/s
Count of elements : 668
Stream size : 20.7 KiB (0%)
Language : English
Default : No
Forced : No[/spoiler]
Info: Per scaricare devi usare un client come uTorrent o Transmission
AnnounceURL
udp://zephir.monocul.us:6969/announce
Hash 3db79a6c63b79930c811ad98b0f700497ef87f3c
Peers seeds: 0 , leech: 0
Size 1.98 GB
Completato 0x
Aggiunto 14.12.20 - 20:12:16
Uploader Anonymous
Votazione (Voti: 0)


Condividi questo bittorrent:


html/blog:


bbcode/forum:




Aggiungi Commento