* Dettagli Torrent   globale  | Commenti (0) 


- Fuoco incrociato a Natale-Wir konnen nicht anders (2020) ITA-GER Ac3 5.1 WebRip 1080p H264 [ArMor] -


Download via torrent:
Categoria bittorrent BDRip
Descrizione
[center]







Titolo originale Wir können nicht anders
Data di uscita 4 Dicembre 2020 (Italia, Streaming)
Genere Commedia , Poliziesco , Thriller
Anno 2020
Regia Detlev Buck
Paese Germania
Durata 105 Min
Distribuzione Netflix



Kostja Ullmann, Alli Neumann, Sascha Alexander Gersak, Sophia Thomalla, Merlin Rose, Peter Kurth, Detlev Buck, Anika Mauer, Frederic Linkemann, Bernd Hölscher, Karsten Mielke, Malte Thomsen, Roman Schomburg, Jakob Schmidt, Steffen Scheumann, Dela Dabulamanzi



La trama di Fuoco incrociato a Natale (2020). Dopo una notte di passione alla vigilia di San Nicola, Edda convince Sam ad accompagnarla nel suo paese natale, dove non mette piede da cinque anni. Durante il viaggio attraverso una provincia sconosciuta e semideserta, la coppia si separa ed è inaspettatamente coinvolta in una lotta tra uomini che non hanno nulla da perdere e uomini disposti a tutto per amore. Di nuovo insieme, Edda e Sam cercano di sopravvivere in una situazione ad alta tensione. Ventiquattr'ore dopo, sei uomini avranno trovato la morte. Ma le donne saranno tutte ancora in vita.



Ein Mann vereitelt einen Mordversuch und flieht dann vor der Besatzung von Möchtegern-Mördern mitsamt ihrer Zielperson, da eine Frau, die er gerade erst kennen gelernt hat, versucht, ihn zu finden.












General
Unique ID                                : 192970549338648156274856470269871290431 (0x912CC6A3B76D3B3BB028BD321EE4783F)
Complete name                            : Fuoco incrociato a Natale-Wir konnen nicht anders (2020) ITA-GER Ac3 5.1 WebRip 1080p H264 [ArMor].mkv
Format                                   : Matroska
Format version                           : Version 4
File size                                : 4.32 GiB
Duration                                 : 1 h 46 min
Overall bit rate                         : 5 813 kb/s
Encoded date                             : UTC 2020-12-06 06:15:38
Writing application                      : mkvmerge v15.0.0 ('Duel with the Devil&#39 64-bit
Writing library                          : libebml v1.3.5 + libmatroska v1.4.5 / Lavf58.29.100

Video
ID                                       : 1
Format                                   : AVC
Format/Info                              : Advanced Video Codec
Format profile                           : [email protected]
Format settings                          : CABAC / 4 Ref Frames
Format settings, CABAC                   : Yes
Format settings, Reference frames        : 4 frames
Codec ID                                 : V_MPEG4/ISO/AVC
Duration                                 : 1 h 46 min
Bit rate                                 : 5 000 kb/s
Width                                    : 1 920 pixels
Height                                   : 804 pixels
Display aspect ratio                     : 2.40:1
Frame rate mode                          : Constant
Frame rate                               : 24.000 FPS
Color space                              : YUV
Chroma subsampling                       : 4:2:0
Bit depth                                : 8 bits
Scan type                                : Progressive
Bits/(Pixel*Frame)                       : 0.135
Stream size                              : 3.65 GiB (85%)
Writing library                          : x264 core 157 r2935 545de2f
Encoding settings                        : cabac=1 / ref=2 / deblock=1:0:0 / analyse=0x1:0x111 / me=hex / subme=6 / psy=1 / psy_rd=1.00:0.00 / mixed_ref=1 / me_range=16 / chroma_me=1 / trellis=1 / 8x8dct=0 / cqm=0 / deadzone=21,11 / fast_pskip=1 / chroma_qp_offset=-2 / threads=18 / lookahead_threads=3 / sliced_threads=0 / nr=0 / decimate=1 / interlaced=0 / bluray_compat=0 / constrained_intra=0 / bframes=3 / b_pyramid=2 / b_adapt=1 / b_bias=0 / direct=1 / weightb=1 / open_gop=0 / weightp=1 / keyint=240 / keyint_min=24 / scenecut=40 / intra_refresh=0 / rc_lookahead=30 / rc=abr / mbtree=1 / bitrate=5000 / ratetol=1.0 / qcomp=0.60 / qpmin=0 / qpmax=69 / qpstep=4 / vbv_maxrate=20000 / vbv_bufsize=25000 / nal_hrd=none / filler=0 / ip_ratio=1.40 / aq=1:1.00
Default                                  : Yes
Forced                                   : No
Color range                              : Limited
Color primaries                          : BT.709
Transfer characteristics                 : BT.709
Matrix coefficients                      : BT.709

Audio #1
ID                                       : 2
Format                                   : AC-3
Format/Info                              : Audio Coding 3
Commercial name                          : Dolby Digital
Codec ID                                 : A_AC3
Duration                                 : 1 h 46 min
Bit rate mode                            : Constant
Bit rate                                 : 448 kb/s
Channel(s)                               : 6 channels
Channel layout                           : L R C LFE Ls Rs
Sampling rate                            : 48.0 kHz
Frame rate                               : 31.250 FPS (1536 SPF)
Compression mode                         : Lossy
Stream size                              : 341 MiB (8%)
Title                                    : WEBDL EAC3
Language                                 : Italian
Service kind                             : Complete Main
Default                                  : Yes
Forced                                   : No

Audio #2
ID                                       : 3
Format                                   : AC-3
Format/Info                              : Audio Coding 3
Commercial name                          : Dolby Digital
Codec ID                                 : A_AC3
Duration                                 : 1 h 46 min
Bit rate mode                            : Constant
Bit rate                                 : 448 kb/s
Channel(s)                               : 6 channels
Channel layout                           : L R C LFE Ls Rs
Sampling rate                            : 48.0 kHz
Frame rate                               : 31.250 FPS (1536 SPF)
Compression mode                         : Lossy
Stream size                              : 341 MiB (8%)
Title                                    : EAC3
Language                                 : German
Service kind                             : Complete Main
Default                                  : No
Forced                                   : No


[/center]

Info: Per scaricare devi usare un client come uTorrent o Transmission
AnnounceURL
udp://tracker.coppersurfer.tk:6969/announce
Hash c23fd6c65b13a883a6809b2124815b69c3578795
Peers seeds: 0 , leech: 0
Size 4.32 GB
Completato 0x
Aggiunto 07.12.20 - 00:12:58
Uploader   ArMor
Votazione (Voti: 0)


Condividi questo bittorrent:


html/blog:


bbcode/forum:




Aggiungi Commento