* Dettagli Torrent   globale  | Commenti (2) 


- ---- Intervista Zlatan Ibrahimovic - Massimo Ambrosini 04/12/2020 ---- H265 AAC -


Download via torrent:
Categoria bittorrent BDRip
Descrizione
Intervista Zlatan Ibrahimovic - Massimo Ambrosini 04/12/2020 [/SIZE]



.: Scheda del filmato :.

Anno: 2020
Genere: Intervista
Regia: Sky Sport 24



.: Descrizione :.

Ibrahimovic intervistato da Massimo Ambrosini. L’attaccante del Milan ha parlato del passato, presente e futuro del Milan e non solo

Ibrahimovic e Massimo Ambrosini hanno dato vita ad una lunga e interessante intervista andata in onda venerdì sera nel corso del programma “23” prodotto da Sky Sport. Ecco le parole del centravanti svedese:
Ibra intervistato da Ambrosini

L’ARRIVO AL MILAN DI DIECI ANNI FA – «A Milanello mi sento a casa, quando sono qua faccio tutte le cose che si devono fare ma non sento la fretta di andarmene perché mi sento già a casa. Ero qui 10 anni fa con voi, grandi giocatori. Il mio primo giorno? Ricordo che ho fatto il record nei test di sforzo, senza riscaldamento. Ricordo che la settimana prima avevamo giocato contro Barcellona-Milan e settimana dopo sono arrivato qui. Tutti mi dicevate “Siamo venuti solo per portarti a Milano”. Galliani era carico, è venuto a casa mia a Barcellona e ha tolto la giacca dicendomi “Non me ne vado senza di te da qui”. A Barcellona non c’era chiarezza, ancora oggi capisco che problemi ci fossero».
.: Scheda tecnica :.

General
Unique ID                                : 43696264469200109037695732017903817095 (0x20DF982BE7380B7D8884BF795599D187)
Complete name                            : C:latan.mkv
Format                                   : Matroska
Format version                           : Version 4
File size                                : 693 MiB
Duration                                 : 51 min 39 s
Overall bit rate                         : 1 874 kb/s
Encoded date                             : UTC 2020-12-04 23:11:12
Writing application                      : mkvmerge v47.0.0 ('Black Flag&#39 64-bit
Writing library                          : libebml v1.3.10 + libmatroska v1.5.2

Video
ID                                       : 1
Format                                   : HEVC
Format/Info                              : High Efficiency Video Coding
Format profile                           : [email protected]@Main
Codec ID                                 : V_MPEGH/ISO/HEVC
Duration                                 : 51 min 39 s
Bit rate                                 : 1 762 kb/s
Width                                    : 568 pixels
Height                                   : 472 pixels
Display aspect ratio                     : 16:9
Frame rate mode                          : Constant
Frame rate                               : 25.000 FPS
Standard                                 : Component
Color space                              : YUV
Chroma subsampling                       : 4:2:0
Bit depth                                : 8 bits
Bits/(Pixel*Frame)                       : 0.263
Stream size                              : 651 MiB (94%)
Default                                  : Yes
Forced                                   : No
Color range                              : Limited

Audio
ID                                       : 2
Format                                   : AAC LC
Format/Info                              : Advanced Audio Codec Low Complexity
Codec ID                                 : A_AAC-2
Duration                                 : 51 min 39 s
Bit rate                                 : 110 kb/s
Channel(s)                               : 2 channels
Channel layout                           : L R
Sampling rate                            : 48.0 kHz
Frame rate                               : 46.875 FPS (1024 SPF)
Compression mode                         : Lossy
Delay relative to video                  : 9 ms
Stream size                              : 40.7 MiB (6%)
Default                                  : No
Forced                                   : No



.: Note :.



Orario di seed e Banda disponibile:
24 / 24 Ai primi 10 completati
Info: Per scaricare devi usare un client come uTorrent o Transmission
AnnounceURL
udp://tracker.torrent.eu.org:451
Hash 073dae90c4ea2c1c4fcb2c7f1dfd0fe524332666
Peers seeds: 3 , leech: 2
Size 692.54 MB
Completato 171x
Aggiunto 05.12.20 - 01:12:34
Uploader   Sfrank77
Votazione (Voti: 1)


Condividi questo bittorrent:


html/blog:


bbcode/forum:




Aggiungi Commento
Ultimi commenti
avatar   Sfrank77   
meglio che rubare tutta la vita!
05/12 09.14
avatar     
Zlatan, sono juventino, ma te sei un grande davvero anche se giochi in una squadra di pippe!!!
05/12 01.38
Tutti commenti (2)