* Dettagli Torrent   globale  | Commenti (1) 


- Mademoiselle (2016) ITA-KOR Ac3 5.1 BDRip 1080p H264 [ArMor] -


Download via torrent:
Categoria bittorrent BDRip
Descrizione







Regista: Park Chan-wook
Genere: Thriller
Anno: 2016
Paese: Corea del Sud
Durata: 139 min
Data di uscita: 29 agosto 2019
Distribuzione: Altre Storie



Mademoiselle, il film diretto da Park Chan-wook, è ambientato nella Corea degli anni '30, durante l'occupazione giapponese. Una facoltosa ereditiera, Lady Hideko (Kim Min-Hee), vive in un'enorme tenuta di campagna in compagnia del prepotente zio (Jo Jin-Woong), dal temperamento sadico e dispotico, nonché grande appassionato di letteratura erotica. L'uomo, che ha cresciuto la nipote sin dalla tenera età di cinque anni, trama di sposarla per impadronirsi del suo ricco patrimonio.

A woman is hired as a handmaiden to a Japanese heiress, but secretly she is involved in a plot to defraud her.













General
Unique ID                                : 226193515542420265760305180558022691453 (0xAA2B4956D08DFB3AAF99E2FE39CC4A7D)
Complete name                            : Mademoiselle (2016) ITA-KOR Ac3 5.1 BDRip 1080p H264 [ArMor].mkv
Format                                   : Matroska
Format version                           : Version 4
File size                                : 2.99 GiB
Duration                                 : 2 h 25 min
Overall bit rate                         : 2 951 kb/s
Encoded date                             : UTC 2020-10-13 12:20:51
Writing application                      : mkvmerge v15.0.0 ('Duel with the Devil&#39 64-bit
Writing library                          : libebml v1.3.5 + libmatroska v1.4.5 / Lavf58.29.100

Video
ID                                       : 1
Format                                   : AVC
Format/Info                              : Advanced Video Codec
Format profile                           : [email protected]
Format settings                          : CABAC / 4 Ref Frames
Format settings, CABAC                   : Yes
Format settings, Reference frames        : 4 frames
Codec ID                                 : V_MPEG4/ISO/AVC
Duration                                 : 2 h 25 min
Bit rate                                 : 2 053 kb/s
Width                                    : 1 920 pixels
Height                                   : 804 pixels
Display aspect ratio                     : 2.40:1
Frame rate mode                          : Constant
Frame rate                               : 23.976 (24000/1001) FPS
Color space                              : YUV
Chroma subsampling                       : 4:2:0
Bit depth                                : 8 bits
Scan type                                : Progressive
Bits/(Pixel*Frame)                       : 0.055
Stream size                              : 2.08 GiB (70%)
Writing library                          : x264 core 157 r2935 545de2f
Encoding settings                        : cabac=1 / ref=3 / deblock=1:0:0 / analyse=0x1:0x111 / me=hex / subme=7 / psy=1 / psy_rd=1.00:0.00 / mixed_ref=1 / me_range=16 / chroma_me=1 / trellis=1 / 8x8dct=0 / cqm=0 / deadzone=21,11 / fast_pskip=1 / chroma_qp_offset=-2 / threads=18 / lookahead_threads=3 / sliced_threads=0 / nr=0 / decimate=1 / interlaced=0 / bluray_compat=0 / constrained_intra=0 / bframes=3 / b_pyramid=2 / b_adapt=1 / b_bias=0 / direct=1 / weightb=1 / open_gop=0 / weightp=2 / keyint=240 / keyint_min=24 / scenecut=40 / intra_refresh=0 / rc_lookahead=40 / rc=crf / mbtree=1 / crf=22.0 / qcomp=0.60 / qpmin=0 / qpmax=69 / qpstep=4 / vbv_maxrate=20000 / vbv_bufsize=25000 / crf_max=0.0 / nal_hrd=none / filler=0 / ip_ratio=1.40 / aq=1:1.00
Default                                  : Yes
Forced                                   : No
Color range                              : Limited
Color primaries                          : BT.709
Transfer characteristics                 : BT.709
Matrix coefficients                      : BT.709

Audio #1
ID                                       : 2
Format                                   : AC-3
Format/Info                              : Audio Coding 3
Commercial name                          : Dolby Digital
Codec ID                                 : A_AC3
Duration                                 : 2 h 25 min
Bit rate mode                            : Constant
Bit rate                                 : 448 kb/s
Channel(s)                               : 6 channels
Channel layout                           : L R C LFE Ls Rs
Sampling rate                            : 48.0 kHz
Frame rate                               : 31.250 FPS (1536 SPF)
Compression mode                         : Lossy
Stream size                              : 465 MiB (15%)
Title                                    : DVD
Language                                 : Italian
Service kind                             : Complete Main
Default                                  : Yes
Forced                                   : No

Audio #2
ID                                       : 3
Format                                   : AC-3
Format/Info                              : Audio Coding 3
Commercial name                          : Dolby Digital
Codec ID                                 : A_AC3
Duration                                 : 2 h 25 min
Bit rate mode                            : Constant
Bit rate                                 : 448 kb/s
Channel(s)                               : 6 channels
Channel layout                           : L R C LFE Ls Rs
Sampling rate                            : 48.0 kHz
Frame rate                               : 31.250 FPS (1536 SPF)
Compression mode                         : Lossy
Stream size                              : 465 MiB (15%)
Title                                    : DTS
Language                                 : Korean
Service kind                             : Complete Main
Default                                  : No
Forced                                   : No


Info: Per scaricare devi usare un client come uTorrent o Transmission
AnnounceURL
udp://tracker.coppersurfer.tk:6969/announce
Hash 20afb7ff61a51528bf047959b9cb975a2469ee61
Peers seeds: 27 , leech: 6
Size 2.99 GB
Completato 642x
Aggiunto 13.10.20 - 22:10:50
Uploader   ArMor
Votazione (Voti: 0)


Condividi questo bittorrent:


html/blog:


bbcode/forum:




Aggiungi Commento
Ultimi commenti
  
Grazie
14/10 09.13
Tutti commenti (1)