* Dettagli Torrent   globale  | Commenti (0) 


- Criminal.UK.S02E01-04.1080p.NF.WEBRip.ITA.ENG.DDP5.1.x264-BlackBit -


Download via torrent:
Categoria bittorrent SerieTv
Descrizione


[size=36pt]Criminal - Stagione 2[/size]




Genere: Poliziesco
Ideatore: Jim Field Smith
Attori: Sylvester Groth, David Tennant, Hayley Atwell, Peter Kurth, Youssef Kerkour, Nathalie Baye, Stéphane Jobert, Lee Ingleby, Laurent Lucas
Anno: 2019
Paese: Gran Bretagna, Francia, Germania, Spagna



Tutti gli episodi si svolgono all’interno di una stanza per gli interrogatori, nella quale i poliziotti si confrontano con i sospettati, analizzando ogni gesto, frase e sguardo che possa aiutarli ad arrivare a scoprire la verità dei fatti.


[spoiler][/spoiler]


[spoiler]
General
Unique ID : 6475285135652308093453981741585155255 (0x4DF1834B2E4641FD3F0605C658644B7)
Complete name : C:UsersAdministratorVideosCriminal S02Criminal.UK.S02E01.Julia.1080p.NF.WEBRip.ITA.ENG.DDP5.1.x264-BlackBit.mkv
Format : Matroska
Format version : Version 4
File size : 1.74 GiB
Duration : 47 min 52 s
Overall bit rate mode : Variable
Overall bit rate : 5 189 kb/s
Encoded date : UTC 2020-09-16 12:42:24
Writing application : mkvmerge v50.0.0 ('Awakenings&#39 64-bit
Writing library : libebml v1.4.0 + libmatroska v1.6.2

Video
ID : 1
Format : AVC
Format/Info : Advanced Video Codec
Format profile : [email protected]
Format settings : CABAC / 4 Ref Frames
Format settings, CABAC : Yes
Format settings, Reference : 4 frames
Codec ID : V_MPEG4/ISO/AVC
Duration : 47 min 50 s
Bit rate mode : Variable
Bit rate : 3 782 kb/s
Maximum bit rate : 20.0 Mb/s
Width : 1 920 pixels
Height : 1 080 pixels
Display aspect ratio : 16:9
Frame rate mode : Constant
Frame rate : 25.000 FPS
Color space : YUV
Chroma subsampling : 4:2:0
Bit depth : 8 bits
Scan type : Progressive
Bits/(Pixel*Frame) : 0.073
Stream size : 1.26 GiB (73%)
Writing library : x264 core 148 r2722 1b0121b
Encoding settings : cabac=1 / ref=4 / deblock=1:0:0 / analyse=0x3:0x111 / me=umh / subme=10 / psy=1 / psy_rd=1.00:0.00 / mixed_ref=1 / me_range=120 / chroma_me=1 / trellis=2 / 8x8dct=1 / cqm=0 / deadzone=21,11 / fast_pskip=1 / chroma_qp_offset=-2 / threads=6 / lookahead_threads=1 / sliced_threads=0 / nr=0 / decimate=1 / interlaced=0 / bluray_compat=0 / stitchable=1 / constrained_intra=0 / bframes=16 / b_pyramid=2 / b_adapt=2 / b_bias=0 / direct=3 / weightb=1 / open_gop=0 / weightp=2 / keyint=250 / keyint_min=126 / scenecut=0 / intra_refresh=0 / rc_lookahead=250 / rc=crf / mbtree=1 / crf=18.0 / qcomp=0.50 / qpmin=6 / qpmax=51 / qpstep=4 / vbv_maxrate=20000 / vbv_bufsize=25000 / crf_max=0.0 / nal_hrd=vbr / filler=0 / ip_ratio=1.40 / aq=1:0.80
Default : Yes
Forced : Yes

Audio #1
ID : 2
Format : E-AC-3
Format/Info : Enhanced AC-3
Commercial name : Dolby Digital Plus
Codec ID : A_EAC3
Duration : 47 min 52 s
Bit rate mode : Constant
Bit rate : 640 kb/s
Channel(s) : 6 channels
Channel layout : L R C LFE Ls Rs
Sampling rate : 48.0 kHz
Frame rate : 31.250 FPS (1536 SPF)
Compression mode : Lossy
Stream size : 219 MiB (12%)
Language : Italian
Service kind : Complete Main
Default : Yes
Forced : Yes

Audio #2
ID : 3
Format : E-AC-3 JOC
Format/Info : Enhanced AC-3 with Joint Object Coding
Commercial name : Dolby Digital Plus with Dolby Atmos
Codec ID : A_EAC3
Duration : 47 min 52 s
Bit rate mode : Constant
Bit rate : 768 kb/s
Channel(s) : 6 channels
Channel layout : L R C LFE Ls Rs
Sampling rate : 48.0 kHz
Frame rate : 31.250 FPS (1536 SPF)
Compression mode : Lossy
Stream size : 263 MiB (15%)
Language : English
Service kind : Complete Main
Default : No
Forced : No
Complexity index : 16
Number of dynamic objects : 15
Bed channel count : 1 channel
Bed channel configuration : LFE

Text #1
ID : 4
Format : UTF-8
Codec ID : S_TEXT/UTF8
Codec ID/Info : UTF-8 Plain Text
Duration : 2 s 920 ms
Bit rate : 73 b/s
Count of elements : 1
Stream size : 27.0 Bytes (0%)
Language : Italian
Default : Yes
Forced : Yes

Text #2
ID : 5
Format : UTF-8
Codec ID : S_TEXT/UTF8
Codec ID/Info : UTF-8 Plain Text
Duration : 46 min 54 s
Bit rate : 67 b/s
Count of elements : 712
Stream size : 23.3 KiB (0%)
Language : Italian
Default : No
Forced : No[/spoiler]
Info: Per scaricare devi usare un client come uTorrent o Transmission
AnnounceURL
udp://tracker.coppersurfer.tk:6969/announce
Hash 5513db8af23e5b0facb2993bb129d37ee691b311
Peers seeds: 10 , leech: 3
Size 7.75 GB
Completato 140x
Aggiunto 16.09.20 - 17:09:42
Uploader Anonymous
Votazione (Voti: 0)


Condividi questo bittorrent:


html/blog:


bbcode/forum:




Aggiungi Commento