* Dettagli Torrent   globale  | Commenti (0) 


- Birba micio combinaguai - Cats (2018).720p.H264.ita.eng.Ac3-5.1-MIRCrew -


Download via torrent:
Categoria bittorrent BDRip
Descrizione
Venite a trovarci su mircrew-releases.org



Birba micio combinaguai - Cats 2018.720p.H264.ita.eng.Ac3-5.1-MIRCrew


NO FOUND ONLY ORIGINAL RELEASE

My release is always in double track audio italian and Original audio
for select it use VLC or dvd player home
not use wmp

Birba micio combinaguai - Cats 2018

Quality MIRCrew on HD 720p da 2 gb


[







Regista: Gang Wang
Genere: Animazione, Avventura, Commedia
Anno: 2018
Paese: Cina
Durata: 105 min



Un giorno, incuriosito dal mondo esterno, Cloak decide di uscire di casa e avventurarsi alla ricerca del leggendario Paradiso dei gatti. Per ritrovare suo figlio, Blanket deve superare la paura e riconciliarsi con il suo passato, grazie anche all'aiuto di un astuto pappagallo.



Consummate con man Roy Courtnay has set his sights on his latest mark: the recently widowed Betty McLeish, worth millions. But this time, what should have been a simple swindle escalates into a cat-and-mouse game with the ultimate stakes. .

 












General

Complete name                            : Birba micio combinaguai - Cats (201.720p.h264.ita.eng.sub.NUita-MIRCrewBirba micio combinaguai - Cats (201.720p.h264.ita.eng.sub.NUita-MIRCrew.mkv
Format                                   : Matroska
Format version                           : Version 2
File size                                : 2.04 GiB
Duration                                 : 1h 27mn
Overall bit rate                         : 3 354 Kbps
Movie name                               : MIRCrew
Encoded date                             : UTC 2020-06-10 11:16:34
Writing application                      : Lavf54.63.100
Writing library                          : Lavf54.63.100
COMMENT                                  : MIRCrew
COPYRIGHT                                : MIRCrew

Video
ID                                       : 1
Format                                   : AVC
Format/Info                              : Advanced Video Codec
Format profile                           : [email protected]
Format settings, CABAC                   : Yes
Format settings, ReFrames                : 2 frames
Codec ID                                 : V_MPEG4/ISO/AVC
Duration                                 : 1h 27mn
Bit rate                                 : 2 500 Kbps
Width                                    : 1 280 pixels
Height                                   : 528 pixels
Display aspect ratio                     : 2.40:1
Frame rate mode                          : Variable
Frame rate                               : 24.000 fps
Color space                              : YUV
Chroma subsampling                       : 4:2:0
Bit depth                                : 8 bits
Scan type                                : Progressive
Bits/(Pixel*Frame)                       : 0.154
Stream size                              : 1.46 GiB (71%)
Writing library                          : x264 core 130 r2273
Encoding settings                        : cabac=1 / ref=2 / deblock=1:-1:-1 / analyse=0x1:0x131 / me=hex / subme=7 / psy=1 / psy_rd=1.00:0.10 / mixed_ref=0 / me_range=16 / chroma_me=1 / trellis=1 / 8x8dct=0 / cqm=0 / deadzone=21,11 / fast_pskip=1 / chroma_qp_offset=-3 / threads=9 / lookahead_threads=1 / sliced_threads=0 / nr=0 / decimate=1 / interlaced=0 / bluray_compat=0 / constrained_intra=0 / bframes=3 / b_pyramid=0 / b_adapt=1 / b_bias=0 / direct=3 / weightb=1 / open_gop=0 / weightp=2 / keyint=240 / keyint_min=24 / scenecut=40 / intra_refresh=0 / rc_lookahead=40 / rc=abr / mbtree=1 / bitrate=2500 / ratetol=1.0 / qcomp=0.60 / qpmin=10 / qpmax=69 / qpstep=4 / vbv_maxrate=24000 / vbv_bufsize=24000 / nal_hrd=none / ip_ratio=1.40 / aq=1:1.00
Language                                 : Italian
Default                                  : Yes
Forced                                   : No
DURATION                                 : 01:27:16.792000000
NUMBER_OF_FRAMES                         : 125683
NUMBER_OF_BYTES                          : 2571892683
_STATISTICS_WRITING_APP                  : mkvmerge v15.0.0 ('Duel with the Devil&#39 64-bit
_STATISTICS_WRITING_DATE_UTC             : 2019-11-03 21:40:14
_STATISTICS_TAGS                         : BPS DURATION NUMBER_OF_FRAMES NUMBER_OF_BYTES

Audio #1
ID                                       : 2
Format                                   : AC-3
Format/Info                              : Audio Coding 3
Mode extension                           : CM (complete main)
Codec ID                                 : A_AC3
Duration                                 : 1h 27mn
Bit rate mode                            : Constant
Bit rate                                 : 448 Kbps
Channel(s)                               : 6 channels
Channel positions                        : Front: L C R, Side: L R, LFE
Sampling rate                            : 48.0 KHz
Bit depth                                : 16 bits
Compression mode                         : Lossy
Delay relative to video                  : 1mn 5s
Stream size                              : 280 MiB (13%)
Title                                    : Surround
Language                                 : Italian
Default                                  : Yes
Forced                                   : No
DURATION                                 : 01:27:16.800000000
NUMBER_OF_FRAMES                         : 163650
NUMBER_OF_BYTES                          : 293260800
_STATISTICS_WRITING_APP                  : mkvmerge v15.0.0 ('Duel with the Devil&#39 64-bit
_STATISTICS_WRITING_DATE_UTC             : 2019-11-03 21:40:14
_STATISTICS_TAGS                         : BPS DURATION NUMBER_OF_FRAMES NUMBER_OF_BYTES

Audio #2
ID                                       : 3
Format                                   : AC-3
Format/Info                              : Audio Coding 3
Mode extension                           : CM (complete main)
Codec ID                                 : A_AC3
Duration                                 : 1h 27mn
Bit rate mode                            : Constant
Bit rate                                 : 448 Kbps
Channel(s)                               : 6 channels
Channel positions                        : Front: L C R, Side: L R, LFE
Sampling rate                            : 48.0 KHz
Bit depth                                : 16 bits
Compression mode                         : Lossy
Delay relative to video                  : 1mn 5s
Stream size                              : 280 MiB (13%)
Title                                    : Surround
Language                                 : English
Default                                  : No
Forced                                   : No
DURATION                                 : 01:27:16.800000000
NUMBER_OF_FRAMES                         : 163650
NUMBER_OF_BYTES                          : 293260800
_STATISTICS_WRITING_APP                  : mkvmerge v15.0.0 ('Duel with the Devil&#39 64-bit
_STATISTICS_WRITING_DATE_UTC             : 2019-11-03 21:40:14
_STATISTICS_TAGS                         : BPS DURATION NUMBER_OF_FRAMES NUMBER_OF_BYTES

Menu
00:00:00.000                             : :Chapter 1
00:04:26.708                             : :Chapter 2
00:08:16.958                             : :Chapter 3
00:12:11.708                             : :Chapter 4
00:16:42.833                             : :Chapter 5
00:21:00.708                             : :Chapter 6
00:24:56.208                             : :Chapter 7
00:28:55.667                             : :Chapter 8
00:33:14.375                             : :Chapter 9
00:37:31.458                             : :Chapter 10
00:41:37.417                             : :Chapter 11
00:46:38.708                             : :Chapter 12
00:50:34.750                             : :Chapter 13
00:54:45.000                             : :Chapter 14
00:59:31.208                             : :Chapter 15
01:03:41.917                             : :Chapter 16
01:08:18.292                             : :Chapter 17
01:13:20.417                             : :Chapter 18
01:17:26.750                             : :Chapter 19
01:23:25.917                             : :Chapter 20












Info: Per scaricare devi usare un client come uTorrent o Transmission
AnnounceURL
udp://tracker.coppersurfer.tk:6969/announce
Hash 4ebf11bca12edeeb984fe56e8c7a71d6e7eb7ff8
Peers seeds: 27 , leech: 34
Size 2.05 GB
Completato 49x
Aggiunto 14.09.20 - 18:09:22
Uploader   robbyrs
Votazione (Voti: 0)


Condividi questo bittorrent:


html/blog:


bbcode/forum:




Aggiungi Commento