* Dettagli Torrent   globale  | Commenti (0) 


- Supergirl.S05E15.Reality.Bytes.WEBMux.ITA.ENG.x264-BlackBit.mkv -


Download via torrent:
Categoria bittorrent SerieTv
Descrizione


[size=36pt]Supergirl - Stagione 5[/size]




Titolo originale Supergirl
Paese Stati Uniti d'America
Anno 2015 – in produzione
Formato serie TV
Genere supereroi, azione, fantasy
Stagioni 5
Episodi 103
Durata 42 min (episodio)
Lingua originale inglese
Rapporto 16:9



Action drama sulla figura di Kara Zor-El cresciuta dalla famiglia Danvers sin da quando aveva 12 anni dopo aver lasciato il pianeta natio Krypton. I Danvers cercano di insegnare a Kara a controllare i suoi poteri, ma un giorno la ragazza svela la sua vera natura durante un disastro per aiutare i civili presenti e da quel momento decide di abbracciare la sua vera natura e seguire le orme del suo più famoso cugino: Superman.


[spoiler][/spoiler]


[spoiler]General
Unique ID                   : 108455323308123106167264258128627641513 (0x5197BC485589EE496312D006C9582CA9)
Complete name               : C:UsersAdministratorVideosSupergirl S05Supergirl.S05E01.Event.Horizon.WEBMux.ITA.ENG.x264-BlackBit.mkv
Format                      : Matroska
Format version              : Version 4
File size                   : 466 MiB
Duration                    : 42 min 22 s
Overall bit rate            : 1 539 kb/s
Encoded date                : UTC 2020-03-21 21:08:52
Writing application         : mkvmerge v44.0.0 ('Domino&#39 64-bit
Writing library             : libebml v1.3.10 + libmatroska v1.5.2

Video
ID                          : 1
Format                      : AVC
Format/Info                 : Advanced Video Codec
Format profile              : [email protected]
Format settings             : CABAC / 5 Ref Frames
Format settings, CABAC      : Yes
Format settings, Reference  : 5 frames
Codec ID                    : V_MPEG4/ISO/AVC
Duration                    : 42 min 22 s
Bit rate                    : 1 100 kb/s
Width                       : 720 pixels
Height                      : 400 pixels
Display aspect ratio        : 16:9
Frame rate mode             : Constant
Frame rate                  : 23.976 (24000/1001) FPS
Color space                 : YUV
Chroma subsampling          : 4:2:0
Bit depth                   : 8 bits
Scan type                   : Progressive
Bits/(Pixel*Frame)          : 0.159
Stream size                 : 330 MiB (71%)
Writing library             : x264 core 152 r2851M ba24899
Encoding settings           : cabac=1 / ref=5 / deblock=1:-1:-1 / analyse=0x3:0x113 / me=umh / subme=9 / psy=1 / psy_rd=1.00:0.15 / mixed_ref=1 / me_range=16 / chroma_me=1 / trellis=2 / 8x8dct=1 / cqm=0 / deadzone=21,11 / fast_pskip=1 / chroma_qp_offset=-3 / threads=12 / lookahead_threads=1 / sliced_threads=0 / nr=0 / decimate=1 / interlaced=0 / bluray_compat=0 / constrained_intra=0 / bframes=3 / b_pyramid=2 / b_adapt=2 / b_bias=0 / direct=3 / weightb=1 / open_gop=0 / weightp=2 / keyint=250 / keyint_min=23 / scenecut=40 / intra_refresh=0 / rc_lookahead=50 / rc=abr / mbtree=1 / bitrate=1100 / ratetol=1.0 / qcomp=0.60 / qpmin=0 / qpmax=69 / qpstep=4 / ip_ratio=1.40 / aq=1:1.00
Default                     : Yes
Forced                      : Yes

Audio #1
ID                          : 2
Format                      : AC-3
Format/Info                 : Audio Coding 3
Commercial name             : Dolby Digital
Codec ID                    : A_AC3
Duration                    : 42 min 22 s
Bit rate mode               : Constant
Bit rate                    : 192 kb/s
Channel(s)                  : 2 channels
Channel layout              : L R
Sampling rate               : 48.0 kHz
Frame rate                  : 31.250 FPS (1536 SPF)
Compression mode            : Lossy
Delay relative to video     : -43 ms
Stream size                 : 58.2 MiB (12%)
Language                    : Italian
Service kind                : Complete Main
Default                     : Yes
Forced                      : Yes

Audio #2
ID                          : 3
Format                      : AAC LC
Format/Info                 : Advanced Audio Codec Low Complexity
Codec ID                    : A_AAC-2
Duration                    : 42 min 22 s
Bit rate                    : 256 kb/s
Channel(s)                  : 2 channels
Channel layout              : L R
Sampling rate               : 48.0 kHz
Frame rate                  : 46.875 FPS (1024 SPF)
Compression mode            : Lossy
Delay relative to video     : -43 ms
Stream size                 : 77.6 MiB (17%)
Language                    : English
Default                     : No
Forced                      : No

Text #1
ID                          : 4
Format                      : UTF-8
Codec ID                    : S_TEXT/UTF8
Codec ID/Info               : UTF-8 Plain Text
Duration                    : 28 min 9 s
Bit rate                    : 0 b/s
Count of elements           : 4
Stream size                 : 196 Bytes (0%)
Language                    : Italian
Default                     : Yes
Forced                      : Yes

Text #2
ID                          : 5
Format                      : UTF-8
Codec ID                    : S_TEXT/UTF8
Codec ID/Info               : UTF-8 Plain Text
Duration                    : 41 min 33 s
Bit rate                    : 91 b/s
Count of elements           : 756
Stream size                 : 27.9 KiB (0%)
Language                    : Italian
Default                     : No
Forced                      : No

Text #3
ID                          : 6
Format                      : UTF-8
Codec ID                    : S_TEXT/UTF8
Codec ID/Info               : UTF-8 Plain Text
Duration                    : 41 min 37 s
Bit rate                    : 86 b/s
Count of elements           : 809
Stream size                 : 26.3 KiB (0%)
Title                       : English
Language                    : English
Default                     : No
Forced                      : No

Text #4
ID                          : 7
Format                      : UTF-8
Codec ID                    : S_TEXT/UTF8
Codec ID/Info               : UTF-8 Plain Text
Duration                    : 41 min 56 s
Bit rate                    : 90 b/s
Count of elements           : 863
Stream size                 : 27.8 KiB (0%)
Title                       : English SDH
Language                    : English
Default                     : No
Forced                      : No[/spoiler]
Info: Per scaricare devi usare un client come uTorrent o Transmission
AnnounceURL
udp://tracker.coppersurfer.tk:6969/announce
Hash 301c45a60ab17ee05e208a025ebfa024f5d4feff
Peers seeds: 19 , leech: 2
Size 466.17 MB
Completato 164x
Aggiunto 01.07.20 - 02:07:18
Uploader Anonymous
Votazione (Voti: 0)


Condividi questo bittorrent:


html/blog:


bbcode/forum:




Aggiungi Commento