* Dettagli Torrent   globale  | Commenti (0) 


- God.Friended.Me.S02E21-22.WEBMux.ITA.x264-BlackBit -


Download via torrent:
Categoria bittorrent SerieTv
Descrizione


[size=36pt]God Friended Me - Stagione 2[/size]




Paese Stati Uniti d'America
Anno 2018 – in produzione
Formato serie TV
Genere commedia drammatica, fantastico
Stagioni 2
Episodi 40
Durata 42-45 min (episodio)
Lingua originale inglese
Rapporto 16:9
[imdb]tt7948998[/imdb]



La serie racconta la vita di Miles, un ateo schietto, a cui viene inviata una richiesta di amicizia su Facebook da un account chiamato "Dio". Questo account invia suggerimenti per dei nuovi amici che abitano a New York. Inizialmente scettico, Miles decide di seguire questi suggerimenti per aiutare le persone. Durante la sua prima richiesta, incontra e fa amicizia con Cara, una scrittrice in difficoltà. Insieme a Cara e al suo amico hacker Rakesh, Miles cerca anche di scoprire chi c'è dietro l'account di "Dio".


[spoiler][/spoiler]


[spoiler]
General
Unique ID : 73368703422768527663106484567761125338 (0x37324C5CC06B16C2BC56F24172D27FDA)
Complete name : C:UsersAdministratorVideosGod Friended Me S02God.Friended.Me.S02E01.Joy.WEBMux.ITA.x264-BlackBit.mkv
Format : Matroska
Format version : Version 4
File size : 396 MiB
Duration : 43 min 28 s
Overall bit rate : 1 273 kb/s
Encoded date : UTC 2020-02-04 21:40:55
Writing application : mkvmerge v42.0.0 ('Overtime&#39 64-bit
Writing library : libebml v1.3.10 + libmatroska v1.5.2

Video
ID : 1
Format : AVC
Format/Info : Advanced Video Codec
Format profile : [email protected]
Format settings : CABAC / 15 Ref Frames
Format settings, CABAC : Yes
Format settings, Reference : 15 frames
Codec ID : V_MPEG4/ISO/AVC
Duration : 43 min 28 s
Bit rate : 1 079 kb/s
Width : 720 pixels
Height : 404 pixels
Display aspect ratio : 16:9
Frame rate mode : Constant
Frame rate : 23.976 (24000/1001) FPS
Color space : YUV
Chroma subsampling : 4:2:0
Bit depth : 8 bits
Scan type : Progressive
Bits/(Pixel*Frame) : 0.155
Stream size : 336 MiB (85%)
Writing library : x264 core 157 r2935 545de2f
Encoding settings : cabac=1 / ref=15 / deblock=1:0:0 / analyse=0x3:0x133 / me=umh / subme=9 / psy=1 / psy_rd=1.00:0.00 / mixed_ref=1 / me_range=24 / chroma_me=1 / trellis=2 / 8x8dct=1 / cqm=0 / deadzone=21,11 / fast_pskip=0 / chroma_qp_offset=-2 / threads=12 / lookahead_threads=2 / sliced_threads=0 / nr=0 / decimate=1 / interlaced=0 / bluray_compat=0 / constrained_intra=0 / bframes=8 / b_pyramid=2 / b_adapt=2 / b_bias=0 / direct=3 / weightb=1 / open_gop=0 / weightp=2 / keyint=240 / keyint_min=23 / scenecut=40 / intra_refresh=0 / rc_lookahead=60 / rc=crf / mbtree=0 / crf=18.0 / qcomp=0.60 / qpmin=0 / qpmax=69 / qpstep=4 / vbv_maxrate=17500 / vbv_bufsize=17500 / crf_max=0.0 / nal_hrd=none / filler=0 / ip_ratio=1.40 / pb_ratio=1.30 / aq=1:1.00
Default : Yes
Forced : Yes

Audio
ID : 2
Format : AC-3
Format/Info : Audio Coding 3
Commercial name : Dolby Digital
Codec ID : A_AC3
Duration : 43 min 28 s
Bit rate mode : Constant
Bit rate : 192 kb/s
Channel(s) : 2 channels
Channel layout : L R
Sampling rate : 48.0 kHz
Frame rate : 31.250 FPS (1536 SPF)
Compression mode : Lossy
Stream size : 59.7 MiB (15%)
Language : Italian
Service kind : Complete Main
Default : Yes
Forced : Yes[/spoiler]
Info: Per scaricare devi usare un client come uTorrent o Transmission
AnnounceURL
udp://tracker.coppersurfer.tk:6969/announce
Hash ede60d4cab0b8eee6cdf2a15c60d4b8630728fd1
Peers seeds: 4 , leech: 0
Size 800.13 MB
Completato 12x
Aggiunto 29.06.20 - 01:06:39
Uploader Anonymous
Votazione (Voti: 0)


Condividi questo bittorrent:


html/blog:


bbcode/forum:




Aggiungi Commento