* Dettagli Torrent   globale  | Commenti (0) 


- La.Scomparsa.Di.Mia.Madre.2019.iTALiAN.AC3.1080p.WEBDL.x264-ODS -


Download via torrent:
Categoria bittorrent BDRip
Descrizione



[size=14pt]...::: INFO :::...[/size]
Genere: Documentario
Durata: 94 min
Regia: Beniamino Barrese
Sceneggiatura: Beniamino Barrese
Produttori: Filippo Macelloni, Beniamino Barrese
Fotografia: Beniamino Barrese
Montaggio: Valentina Cicogna
Musica: Aaron Cupples
Case di produzione: Nanof

[size=14pt]...::: TRAMA :::...[/size]
La supermodella icona degli anni Sessanta Benedetta Barzini, oramai settantatreenne, pianifica la sua scomparsa ma deve fare i conti con il tentativo di suo figlio di realizzare un film su di lei.

[size=14pt]...::: SCREENSHOT :::...[/size]



[size=14pt]...::: REPORT :::...[/size]
[spoiler]Format                      : Matroska
Format version              : Version 4
File size                   : 7.94 GiB
Duration                    : 1 h 33 min
Overall bit rate mode       : Variable
Overall bit rate            : 12.2 Mb/s
Movie name                  : ODS
Encoded date                : UTC 2020-05-25 21:39:54
Writing application         : mkvmerge v45.0.0 ('Heaven in Pennies&#39 64-bit
Writing library             : libebml v1.3.10 + libmatroska v1.5.2

Video
ID                          : 1
Format                      : AVC
Format/Info                 : Advanced Video Codec
Format profile              : [email protected]
Format settings             : CABAC / 1 Ref Frames
Format settings, CABAC      : Yes
Format settings, Reference  : 1 frame
Format settings, GOP        : M=1, N=15
Codec ID                    : V_MPEG4/ISO/AVC
Duration                    : 1 h 33 min
Bit rate mode               : Variable
Bit rate                    : 11.7 Mb/s
Maximum bit rate            : 2 000 kb/s
Width                       : 1 920 pixels
Height                      : 1 080 pixels
Display aspect ratio        : 16:9
Frame rate mode             : Constant
Frame rate                  : 29.970 (30000/1001) FPS
Color space                 : YUV
Chroma subsampling          : 4:2:0
Bit depth                   : 8 bits
Scan type                   : Progressive
Bits/(Pixel*Frame)          : 0.189
Stream size                 : 7.64 GiB (96%)
Title                       : ODS
Language                    : Italian
Default                     : Yes
Forced                      : Yes

Audio
ID                          : 2
Format                      : AC-3
Format/Info                 : Audio Coding 3
Commercial name             : Dolby Digital
Codec ID                    : A_AC3
Duration                    : 1 h 33 min
Bit rate mode               : Constant
Bit rate                    : 448 kb/s
Channel(s)                  : 6 channels
Channel layout              : L R C LFE Ls Rs
Sampling rate               : 48.0 kHz
Frame rate                  : 31.250 FPS (1536 SPF)
Bit depth                   : 16 bits
Compression mode            : Lossy
Stream size                 : 299 MiB (4%)
Title                       : ITA AC3
Language                    : Italian
Service kind                : Complete Main
Default                     : Yes
Forced                      : Yes

[/spoiler]
Info: Per scaricare devi usare un client come uTorrent o Transmission
AnnounceURL
udp://tracker.torrent.eu.org:451/announce
Hash 3fb240734ecfed633bfd614327115e07f4dd1fd5
Peers seeds: 20 , leech: 9
Size 7.94 GB
Completato 84x
Aggiunto 26.05.20 - 17:05:05
Uploader   zagor1961
Votazione (Voti: 0)


Condividi questo bittorrent:


html/blog:


bbcode/forum:




Aggiungi Commento