* Dettagli Torrent   globale  | Commenti (1) 


- Heder.S01E03-08.WEBMux.ITA.DD5.1.x264-BlackBit -


Download via torrent:
Categoria bittorrent SerieTv
Descrizione


[size=36pt]Heder - Stagione 1[/size]




Paese Svezia
Anno 2020
Formato serie TV
Genere drama
Puntate 8
Lingua originale svedese



La serie svedese prende il nome dello studio legale delle protagoniste Karin Stenshufvud, Janni Can, Nour Navidi ed Elin Holm. Loro sono quattro avvocatesse pronte a tutto pur di rappresentare le loro clienti, spesso donne vittime di violenza o crimini di natura sessuale.


[spoiler][/spoiler]


[spoiler]
General
Unique ID : 318231534162007063633941442410577419109 (0xEF692A01BE1AC165653FF65ED1985B65)
Complete name : C:UsersAdministratorVideosHeder S01Ep 01Heder.S01E01.Episodio.Uno.WEBMux.ITA.DD5.1.x264-BlackBit.mkv
Format : Matroska
Format version : Version 4
File size : 547 MiB
Duration : 45 min 18 s
Overall bit rate : 1 688 kb/s
Encoded date : UTC 2020-05-04 07:58:40
Writing application : mkvmerge v46.0.0 ('No Deeper Escape&#39 64-bit
Writing library : libebml v1.3.10 + libmatroska v1.5.2

Video
ID : 1
Format : AVC
Format/Info : Advanced Video Codec
Format profile : [email protected]
Format settings : CABAC / 16 Ref Frames
Format settings, CABAC : Yes
Format settings, Reference : 16 frames
Codec ID : V_MPEG4/ISO/AVC
Duration : 45 min 18 s
Bit rate : 1 046 kb/s
Width : 720 pixels
Height : 360 pixels
Display aspect ratio : 2.000
Frame rate mode : Constant
Frame rate : 25.000 FPS
Color space : YUV
Chroma subsampling : 4:2:0
Bit depth : 8 bits
Scan type : Progressive
Bits/(Pixel*Frame) : 0.161
Stream size : 339 MiB (62%)
Writing library : x264 core 157 r2969 d4099dd
Encoding settings : cabac=1 / ref=16 / deblock=1:0:0 / analyse=0x3:0x133 / me=umh / subme=9 / psy=1 / psy_rd=1.00:0.00 / mixed_ref=1 / me_range=24 / chroma_me=1 / trellis=2 / 8x8dct=1 / cqm=0 / deadzone=21,11 / fast_pskip=0 / chroma_qp_offset=-2 / threads=11 / lookahead_threads=1 / sliced_threads=0 / nr=0 / decimate=1 / interlaced=0 / bluray_compat=0 / constrained_intra=0 / bframes=8 / b_pyramid=2 / b_adapt=2 / b_bias=0 / direct=3 / weightb=1 / open_gop=0 / weightp=2 / keyint=250 / keyint_min=25 / scenecut=40 / intra_refresh=0 / rc_lookahead=60 / rc=crf / mbtree=0 / crf=17.0 / qcomp=0.60 / qpmin=0 / qpmax=69 / qpstep=4 / vbv_maxrate=17500 / vbv_bufsize=17500 / crf_max=0.0 / nal_hrd=none / filler=0 / ip_ratio=1.40 / pb_ratio=1.30 / aq=1:1.00
Default : Yes
Forced : Yes

Audio
ID : 2
Format : AC-3
Format/Info : Audio Coding 3
Commercial name : Dolby Digital
Codec ID : A_AC3
Duration : 45 min 17 s
Bit rate mode : Constant
Bit rate : 640 kb/s
Channel(s) : 6 channels
Channel layout : L R C LFE Ls Rs
Sampling rate : 48.0 kHz
Frame rate : 31.250 FPS (1536 SPF)
Compression mode : Lossy
Stream size : 207 MiB (38%)
Language : Italian
Service kind : Complete Main
Default : Yes
Forced : Yes[/spoiler]
Info: Per scaricare devi usare un client come uTorrent o Transmission
AnnounceURL
udp://tracker.coppersurfer.tk:6969/announce
Hash 8dccaec9fa1f9a46359ca9e5683d913684c509ed
Peers seeds: 46 , leech: 18
Size 2.98 GB
Completato 142x
Aggiunto 07.05.20 - 00:05:16
Uploader Exportando
Votazione (Voti: 0)


Condividi questo bittorrent:


html/blog:


bbcode/forum:




Aggiungi Commento
Ultimi commenti
 jackal98jackal98   
Perchè non si apre?
28/06 15.43
Tutti commenti (1)