* Dettagli Torrent   globale  | Commenti (0) 


- ---- Le verità (2019) BY Mul1no ---- Xvid Ita AC3 -


Download via torrent:
Categoria bittorrent BDRip
Descrizione
Le verità (2019)
BY Mul1n0



.: Scheda del Film :.


Titolo originale La vérité
Lingua originale francese, inglese
Paese di produzione Francia, Giappone
Anno 2019
Durata 106 min
Cast:

   Catherine Deneuve: Fabienne
   Juliette Binoche: Lumir
   Ethan Hawke: Hank
   Clémentine Grenier: Charlotte
   Manon Clavel: Manon
   Christian Crahay: Jacques
   Roger Van Hool: Pierre
   Ludivine Sagnier: Amy
   Laurent Capelluto: giornalista
   Alain Libolt: Luc


.: Trama :.


L'attrice Fabienne Daugeville, in occasione della pubblicazione della sua autobiografia, riceve la visita della figlia Lumir, sceneggiatrice che vive da anni a New York accompagnata dal marito attore Hank e dalla figlia Charlotte. Lumir è delusa dalla madre che non le ha inviato in anticipo il manoscritto e quando lo legge lo trova pieno di inesattezze se non addirittura menzogne. Anche il maggiordomo tuttofare Luc si sente tradito per non essere mai stato citato nel libro e decide di lasciare il lavoro e trasferirsi in Bretagna per occuparsi dei nipoti. Lumir deve quindi accompagnare la madre sul set dove sta girando un film di fantascienza con l'attrice del momento (a detta dei critici la sua erede). Restare a lungo con la madre fa riemergere molti ricordi, non sempre positivi, e riemergono anche questioni irrisolte e conflitti che, dopo tanto tempo potrebbero essere però visti sotto un'ottica diversa.


.: ScreenShot :.









.: Scheda tecnica del filmato :.


General
Complete name                            : C:Le.Verita.2019.BDRip.AC3.ITA.SUB.LFi.avi
Format                                   : AVI
Format/Info                              : Audio Video Interleave
File size                                : 1.67 GiB
Duration                                 : 1 h 47 min
Overall bit rate                         : 2 223 kb/s

Video
ID                                       : 0
Format                                   : MPEG-4 Visual
Format profile                           : Advanced [email protected]
Format settings                          : BVOP2
Format settings, BVOP                    : 2
Format settings, QPel                    : No
Format settings, GMC                     : No warppoints
Format settings, Matrix                  : Default (MPEG)
Codec ID                                 : XVID
Codec ID/Hint                            : XviD
Duration                                 : 1 h 47 min
Bit rate                                 : 1 575 kb/s
Width                                    : 704 pixels
Height                                   : 384 pixels
Display aspect ratio                     : 1.85:1
Frame rate                               : 24.000 FPS
Color space                              : YUV
Chroma subsampling                       : 4:2:0
Bit depth                                : 8 bits
Scan type                                : Progressive
Compression mode                         : Lossy
Bits/(Pixel*Frame)                       : 0.243
Stream size                              : 1.18 GiB (71%)
Writing library                          : XviD 67

Audio
ID                                       : 1
Format                                   : AC-3
Format/Info                              : Audio Coding 3
Codec ID                                 : 2000
Duration                                 : 1 h 47 min
Bit rate mode                            : Constant
Bit rate                                 : 640 kb/s
Channel(s)                               : 6 channels
Channel positions                        : Front: L C R, Side: L R, LFE
Sampling rate                            : 48.0 kHz
Frame rate                               : 31.250 FPS (1536 SPF)
Bit depth                                : 16 bits
Compression mode                         : Lossy
Stream size                              : 493 MiB (29%)
Alignment                                : Aligned on interleaves
Interleave, duration                     : 64  ms (1.54 video frames)
Interleave, preload duration             : 192  ms
Title                                    : AC3 ITA
Service kind                             : Complete Main

Text
ID                                       : 2
Format                                   : SubRip
Duration                                 : 1 h 47 min
Bit rate                                 : 118 b/s
Compression mode                         : Lossless
Stream size                              : 93.0 KiB (0%)
Title                                    : SUB ITA










.: Note :.



Orario di seed e Banda disponibile: ai primi 10 completati, buon download

Info: Per scaricare devi usare un client come uTorrent o Transmission
AnnounceURL
udp://tracker.coppersurfer.tk:6969/announce
Hash e3fc8d4ecae8a82ea6d087c62a9a133e5d32de50
Peers seeds: 26 , leech: 5
Size 1.67 GB
Completato 52x
Aggiunto 01.03.20 - 09:03:58
Uploader   Sfrank77
Votazione (Voti: 0)


Condividi questo bittorrent:


html/blog:


bbcode/forum:




Aggiungi Commento