* Dettagli Torrent   globale  | Commenti (0) 


- ---- LE IENE 27/02/2020 By Mul1n0 ---- H264 AAC -


Download via torrent:
Categoria bittorrent BDRip
Descrizione
LE IENE 27/02/2020 By Mul1n0[/SIZE]



.: Scheda del filmato :.

Anno: 2020
Genere: INCHIESTA
Regia: DAVIDE PARENTI

.: Descrizione :.

Programma di approfondimento e di attuailtà che propone inchieste e reportage facendo uso di uno stile irriverente e satirico.

.: ScreenShot :.



.: Scheda tecnica :.

General
Unique ID                                : 310469529473434137164401703060851481225 (0xE99241A105F58781CEB88FED70ED5A89)
Complete name                            : C:Le iene 27-02-2020.mkv
Format                                   : Matroska
Format version                           : Version 4
File size                                : 2.93 GiB
Duration                                 : 3 h 9 min
Overall bit rate mode                    : Variable
Overall bit rate                         : 2 215 kb/s
Movie name                               : Le iene 27-02-2020
Encoded date                             : UTC 2020-02-28 10:15:38
Writing application                      : mkvmerge v43.0.0 ('The Quartermaster&#39 64-bit
Writing library                          : libebml v1.3.10 + libmatroska v1.5.2

Video
ID                                       : 1
Format                                   : AVC
Format/Info                              : Advanced Video Codec
Format profile                           : [email protected]
Format settings                          : CABAC / 3 Ref Frames
Format settings, CABAC                   : Yes
Format settings, Reference frames        : 3 frames
Codec ID                                 : V_MPEG4/ISO/AVC
Duration                                 : 3 h 9 min
Bit rate mode                            : Variable
Bit rate                                 : 2 086 kb/s
Maximum bit rate                         : 25.0 Mb/s
Width                                    : 1 920 pixels
Height                                   : 1 080 pixels
Display aspect ratio                     : 16:9
Frame rate mode                          : Constant
Frame rate                               : 25.000 FPS
Color space                              : YUV
Chroma subsampling                       : 4:2:0
Bit depth                                : 8 bits
Scan type                                : Progressive
Bits/(Pixel*Frame)                       : 0.040
Stream size                              : 2.76 GiB (94%)
Writing library                          : x264 core 159 r2991 1771b55
Encoding settings                        : cabac=1 / ref=3 / deblock=1:0:0 / analyse=0x3:0x113 / me=hex / subme=7 / psy=1 / psy_rd=1.00:0.00 / mixed_ref=1 / me_range=16 / chroma_me=1 / trellis=1 / 8x8dct=1 / cqm=0 / deadzone=21,11 / fast_pskip=1 / chroma_qp_offset=-2 / threads=34 / lookahead_threads=5 / sliced_threads=0 / nr=0 / decimate=1 / interlaced=0 / bluray_compat=0 / constrained_intra=0 / bframes=3 / b_pyramid=0 / b_adapt=1 / b_bias=0 / direct=1 / weightb=1 / open_gop=0 / weightp=2 / keyint=250 / keyint_min=25 / scenecut=40 / intra_refresh=0 / rc_lookahead=40 / rc=2pass / mbtree=1 / bitrate=2086 / ratetol=1.0 / qcomp=0.60 / qpmin=0 / qpmax=69 / qpstep=4 / cplxblur=20.0 / qblur=0.5 / vbv_maxrate=25000 / vbv_bufsize=25000 / nal_hrd=vbr / filler=0 / ip_ratio=1.40 / aq=1:1.00
Default                                  : Yes
Forced                                   : No
Color range                              : Limited
Color primaries                          : BT.709
Transfer characteristics                 : BT.709
Matrix coefficients                      : BT.709

Audio
ID                                       : 2
Format                                   : AAC LC
Format/Info                              : Advanced Audio Codec Low Complexity
Codec ID                                 : A_AAC-2
Duration                                 : 3 h 9 min
Bit rate                                 : 128 kb/s
Channel(s)                               : 2 channels
Channel layout                           : L R
Sampling rate                            : 48.0 kHz
Frame rate                               : 46.875 FPS (1024 SPF)
Compression mode                         : Lossy
Stream size                              : 173 MiB (6%)
Language                                 : Italian
Default                                  : Yes
Forced                                   : No




.: Note :.



Orario di seed e Banda disponibile:
24 / 24 Ai primi 10 completati
Info: Per scaricare devi usare un client come uTorrent o Transmission
AnnounceURL
udp://tracker.coppersurfer.tk:6969/announce
Hash 2064ba7e8beb97ff6df3848422ec429a0ba0b091
Peers seeds: 3 , leech: 2
Size 2.93 GB
Completato 77x
Aggiunto 28.02.20 - 15:02:20
Uploader   Sfrank77
Votazione (Voti: 0)


Condividi questo bittorrent:


html/blog:


bbcode/forum:




Aggiungi Commento