* Dettagli Torrent   globale  | Commenti (1) 


- ---- Cera una Volta... a Hollywood BY Mul1no ---- WEBRIP -


Download via torrent:
Categoria bittorrent BDRip
Descrizione
C'era una Volta... a Hollywood (2019)
BY Mul1n0



.: Scheda del Film :.


Titolo originale:   Once Upon a Time in... Hollywood
Nazionalità:   Usa
Anno:  2019
Genere:   drammatico, commedia, thriller
Regia:   Quentin Tarantino
Cast:

 

   Leonardo DiCaprio: Rick Dalton
   Brad Pitt: Cliff Booth
   Margot Robbie: Sharon Tate
   Emile Hirsch: Jay Sebring
   Margaret Qualley: Pussycat
   Timothy Olyphant: James Stacy
   Julia Butters: Trudi Fraser
   Austin Butler: Charles "Tex" Watson
   Dakota Fanning: Lynette "Squeaky" Fromme
   Bruce Dern: George Spahn
   Mike Moh: Bruce Lee
   Luke Perry: Wayne Maunder
   Damian Lewis: Steve McQueen
   Al Pacino: Marvin Schwarzs
   Nicholas Hammond: Sam Wanamaker
   Samantha Robinson: Abigail Folger
   Rafa? Zawierucha: Roman Pola?ski
   Lorenza Izzo: Francesca Capucci
   Costa Ronin: Wojciech Frykowski
   Damon Herriman: Charles Manson
   Lena Dunham: Catherine "Gypsy" Share
   Madisen Beaty: Patricia "Katie" Krenwinkel
   Mikey Madison: Susan "Sadie" Atkins
   James Landry Hébert: Steve "Clem" Grogan
   Maya Hawke: Linda Kasabian
   Victoria Pedretti: Leslie "Lulu" Van Houten
   Scoot McNairy: "Business" Bob Gilbert
   Clifton Collins Jr.: Ernesto il messicano
   Dreama Walker: Connie Stevens
   Rachel Redleaf: Cass Elliot
   Rebecca Rittenhouse: Michelle Phillips
   Rumer Willis: Joanna Pettet
   Spencer Garrett: Allen Kincade
   Clu Gulager: proprietario della "Larry Edmunds Bookshop"
   Rebecca Gayheart: Billie Booth
   Kurt Russell: Randy / narratore
   Zoë Bell: Janet
   Michael Madsen: sceriffo Hackett
   Perla Haney-Jardine: venditrice di sigarette



.: Trama :.


Alla fine degli anni cinquanta, l'attore Rick Dalton è protagonista della popolare serie televisiva western Bounty Law e sembra pronto a compiere il "grande salto" da volto televisivo a star del cinema. Nel febbraio del 1969, tuttavia, la sua carriera non è decollata come previsto e, mentre a Hollywood sta emergendo un nuovo tipo di cinema e con esso un tipo d'attore diverso dal suo, Dalton si ritrova ad accettare parti da cattivo occasionale in televisione. A passarsela male è anche Cliff Booth, da dieci anni sua inseparabile controfigura, miglior amico e, da quando Dalton è stato fermato per guida in stato d'ebbrezza, autista personale: già sospettato della morte di sua moglie, è stato bandito qualche anno prima dai set a causa di una rissa scoppiata con Bruce Lee durante le riprese di un episodio de Il Calabrone Verde.

Dalton viene contattato dall'agente di casting Marvin Schwartzs, che gli propone una trasferta in Italia, dove molti attori in declino prima di lui si sono riciclati come star di spaghetti western. La notizia che la sua carriera potrebbe essere giunta al capolinea getta Dalton nello sconforto, finché non scopre che nella casa a fianco alla sua si è appena trasferita la giovane coppia del regista Roman Pola?ski, uno dei nomi più caldi del momento a Hollywood, e sua moglie, l'attrice Sharon Tate. Mentre Dalton fantastica di entrare nelle grazie della coppia e ravvivare la propria carriera con un ruolo in un film di Pola?ski, Booth nota uno strano giovane, Charles Manson, che si presenta a casa Pola?ski in cerca del precedente proprietario e che, prima di venire allontanato, adocchia la Tate.
.: ScreenShot :.









.: Scheda tecnica del filmato :.


General
Complete name                            : C:/C.Era.Una.Volta.A.Hollywood.2019.iTALiAN.LD.WEBRip.R2.XviD-iSTANCE.avi
Format                                   : AVI
Format/Info                              : Audio Video Interleave
File size                                : 1.89 GiB
Duration                                 : 2 h 34 min
Overall bit rate                         : 1 751 kb/s
Writing application                      : VirtualDubMod 1.5.10.2 (build 2540/release)
Writing library                          : VirtualDubMod build 2540/release

Video
ID                                       : 0
Format                                   : MPEG-4 Visual
Format profile                           : Advanced [email protected]
Format settings                          : BVOP2
Format settings, BVOP                    : 2
Format settings, QPel                    : No
Format settings, GMC                     : No warppoints
Format settings, Matrix                  : Default (MPEG)
Muxing mode                              : Packed bitstream
Codec ID                                 : XVID
Codec ID/Hint                            : XviD
Duration                                 : 2 h 34 min
Bit rate                                 : 1 549 kb/s
Width                                    : 720 pixels
Height                                   : 304 pixels
Display aspect ratio                     : 2.35:1
Frame rate                               : 25.000 FPS
Color space                              : YUV
Chroma subsampling                       : 4:2:0
Bit depth                                : 8 bits
Scan type                                : Progressive
Compression mode                         : Lossy
Bits/(Pixel*Frame)                       : 0.283
Stream size                              : 1.67 GiB (88%)
Writing library                          : XviD 67

Audio
ID                                       : 1
Format                                   : AC-3
Format/Info                              : Audio Coding 3
Commercial name                          : Dolby Digital
Codec ID                                 : 2000
Duration                                 : 2 h 34 min
Bit rate mode                            : Constant
Bit rate                                 : 192 kb/s
Channel(s)                               : 2 channels
Channel layout                           : L R
Sampling rate                            : 48.0 kHz
Frame rate                               : 31.250 FPS (1536 SPF)
Compression mode                         : Lossy
Stream size                              : 213 MiB (11%)
Alignment                                : Split across interleaves
Interleave, duration                     : 40  ms (1.00 video frame)
Interleave, preload duration             : 500  ms
Service kind                             : Complete Main








.: Note :.

Orario di seed e Banda disponibile: ai primi 10 completati, buon download

Info: Per scaricare devi usare un client come uTorrent o Transmission
AnnounceURL
udp://tracker.coppersurfer.tk:6969/announce
Hash f5aaa5a5b0e6388949f19560ece0e2525a805494
Peers seeds: 117 , leech: 8
Size 1.89 GB
Completato 239x
Aggiunto 21.11.19 - 04:11:30
Uploader   Sfrank77
Votazione (Voti: 0)


Condividi questo bittorrent:


html/blog:


bbcode/forum:




Aggiungi Commento
Ultimi commenti
 DeathAngelDeathAngel   
Con audio LD va inserito in Screener...
21/11 10.16
Tutti commenti (1)