* Dettagli Torrent   globale  | Commenti (2) 


- - Pet.Sematary (2019).Xvid.italian.Mp3.By Mul1n0 - -


Download via torrent:
Categoria bittorrent BDRip
Descrizione
Pet.Sematary (2019)
BY Mul1n0



.: Scheda del Film :.


Titolo originale:   Pet Sematary
Nazionalità:   Usa
Anno:  2019
Genere:   orrore
Regia:   Kevin Kölsch, Dennis Widmyer
Cast:      

   Jason Clarke: Louis Creed
   Amy Seimetz: Rachel Goldman Creed
   John Lithgow: Jud Crandall
   Jeté Laurence: Ellie Creed
   Hugo Lavoie e Lucas Lavoie: Gage Creed
   Obssa Ahmed: Victor Pascow
   Alyssa Brooke Levine: Zelda Goldman
   Suzy Stingl: Norma Crandall
   Maria Herrera: Marcella
   Kelly Lee: Kelly


.: Trama :.


Louis Creed, con la moglie Rachel e i due figli Gage ed Ellie, si trasferisce in una casa di campagna dove fanno la scoperta dell'inquietante "cimitero degli animali" situato vicino casa. Dopo la tragica perdita del loro gatto, Louis lo seppellisce nel misterioso sepolcreto, che si dimostrerà non essere assolutamente come sembra.  [2]

.: ScreenShot :.








.: Scheda tecnica del filmato :.


General
Complete name                            : Cet.Sematary.2019.iTALiAN.MD.WEBRip.R3.XviD-iSTANCE.avi
Format                                   : AVI
Format/Info                              : Audio Video Interleave
File size                                : 1.24 GiB
Duration                                 : 1 h 39 min
Overall bit rate                         : 1 798 kb/s
Writing application                      : VirtualDubMod 1.5.10.2 (build 2540/release)
Writing library                          : VirtualDubMod build 2540/release

Video
ID                                       : 0
Format                                   : MPEG-4 Visual
Format profile                           : Advanced [email protected]
Format settings                          : BVOP2
Format settings, BVOP                    : 2
Format settings, QPel                    : No
Format settings, GMC                     : No warppoints
Format settings, Matrix                  : Default (MPEG)
Muxing mode                              : Packed bitstream
Codec ID                                 : XVID
Codec ID/Hint                            : XviD
Duration                                 : 1 h 39 min
Bit rate                                 : 1 594 kb/s
Width                                    : 720 pixels
Height                                   : 304 pixels
Display aspect ratio                     : 2.35:1
Frame rate                               : 29.970 (30000/1001) FPS
Color space                              : YUV
Chroma subsampling                       : 4:2:0
Bit depth                                : 8 bits
Scan type                                : Progressive
Compression mode                         : Lossy
Bits/(Pixel*Frame)                       : 0.243
Stream size                              : 1.10 GiB (89%)
Writing library                          : XviD 67

Audio
ID                                       : 1
Format                                   : AC-3
Format/Info                              : Audio Coding 3
Codec ID                                 : 2000
Duration                                 : 1 h 39 min
Bit rate mode                            : Constant
Bit rate                                 : 192 kb/s
Channel(s)                               : 2 channels
Channel positions                        : Front: L R
Sampling rate                            : 48.0 kHz
Frame rate                               : 31.250 FPS (1536 SPF)
Bit depth                                : 16 bits
Compression mode                         : Lossy
Stream size                              : 136 MiB (11%)
Alignment                                : Split accross interleaves
Interleave, duration                     : 33  ms (1.00 video frame)
Interleave, preload duration             : 500  ms
Service kind                             : Complete Main




.: Note :.

Orario di seed e Banda disponibile: ai primi 10 completati, buon download

Info: Per scaricare devi usare un client come uTorrent o Transmission
AnnounceURL
udp://tracker.coppersurfer.tk:6969/announce
Hash 77014d4d8609dfb15578c5acfa3eb4a4bca6b46c
Peers seeds: 82 , leech: 47
Size 1.24 GB
Completato 277x
Aggiunto 27.05.19 - 23:05:48
Uploader   Sfrank77
Votazione (Voti: 0)


Condividi questo bittorrent:


html/blog:


bbcode/forum:




Aggiungi Commento
Ultimi commenti
avatar   robbyrs   
in effetti si!! ricodifica oltretutto di audio md mp3 in ac3

quindi screener
28/05 21.45
 DeathAngel   
Questo va' inserito negli screener....
28/05 11.17
Tutti commenti (2)