* Dettagli Torrent   globale  | Commenti (1) 


- Ride.2018.BDRip.AC3.ITA-BYMul1n0 -


Download via torrent:
Categoria bittorrent BDRip
Descrizione
Ride (2019)



[color=green].: Scheda del Film :.


Titolo originale:  Ride
Nazionalità:   ITALIA
Anno:  2019
Genere:   drammatico
Regia:   Valerio Mastandrea

Cast:      
   Chiara Martegiani: Carolina
   Renato Carpentieri: Cesare
   Stefano Dionisi: Nicola
   Arturo Marchetti: Bruno
   Milena Vukotic: Ada
   Mattia Stramazzi: Ciccio
   Walter Toschi: Ictus
   Giancarlo Porcacchia: Morbido
   Silvia Gallerano: Sonia
   Emanuel Bevilacqua: Aldo
   Milena Mancini: Marta
   Giordano De Plano: Paolo
   Lino Musella: Mauro







.: Trama :.


Una domenica di maggio, a casa di Carolina si contano le ore. Ne mancano solo 24 al giorno in cui bisognerà aderire pubblicamente alla commozione collettiva che ha travolto una piccola comunità sul mare, a pochi chilometri dalla capitale. Se n'è andato Mauro Secondari, un giovane operaio caduto nella fabbrica in cui, da quelle parti, hanno transitato almeno tre generazioni. E da sette giorni Carolina è rimasta sola, con un figlio di dieci anni e con la sua fatica immensa, a sprofondare nel dolore per la perdita dell'amore della sua vita. Manca un giorno solo al funerale dove tutti si aspetteranno una giovane vedova devastata che sviene ogni due minuti.[2]

.: ScreenShot :.








.: Scheda tecnica del filmato :.


General
Unique ID                                : 147939817051154354202774769563899465055 (0x6F4C2C1FF48CB501ECB45DB97F2B0D5F)
Complete name                            : C:Ride.2018.BDRip.AC3.ITA.CB01.avi
Format                                   : Matroska
Format version                           : Version 2
File size                                : 1.62 GiB
Duration                                 : 1 h 41 min
Overall bit rate                         : 2 275 kb/s
Movie name                               : CineBlog01HD
Encoded date                             : UTC 2019-03-30 09:50:36 / UTC 2019-03-30 09:50:36
Writing application                      : Lavf54.63.104
Writing library                          : Lavf54.63.104
FileExtension_Invalid                    : mkv mk3d mka mks

Video
ID                                       : 1
Format                                   : MPEG-4 Visual
Format profile                           : [email protected]
Format settings, BVOP                    : No
Format settings, QPel                    : No
Format settings, GMC                     : No warppoints
Format settings, Matrix                  : Default (H.263)
Codec ID                                 : V_MPEG4/ISO/ASP
Codec ID/Info                            : Advanced Simple Profile
Duration                                 : 1 h 41 min
Bit rate                                 : 1 590 kb/s
Width                                    : 720 pixels
Height                                   : 384 pixels
Display aspect ratio                     : 1.85:1
Frame rate mode                          : Constant
Frame rate                               : 24.000 FPS
Color space                              : YUV
Chroma subsampling                       : 4:2:0
Bit depth                                : 8 bits
Scan type                                : Progressive
Compression mode                         : Lossy
Bits/(Pixel*Frame)                       : 0.240
Stream size                              : 1.13 GiB (70%)
Writing library                          : Lavc54.92.100
Default                                  : Yes
Forced                                   : No

Audio
ID                                       : 2
Format                                   : AC-3
Format/Info                              : Audio Coding 3
Codec ID                                 : A_AC3
Duration                                 : 1 h 41 min
Bit rate mode                            : Constant
Bit rate                                 : 640 kb/s
Channel(s)                               : 6 channels
Channel positions                        : Front: L C R, Side: L R, LFE
Sampling rate                            : 48.0 kHz
Frame rate                               : 31.250 FPS (1536 SPF)
Bit depth                                : 16 bits
Compression mode                         : Lossy
Stream size                              : 466 MiB (28%)
Service kind                             : Complete Main
Default                                  : Yes
Forced                                   : No









.: Note :.

Orario di seed e Banda disponibile: ai primi 10 completati, buon download

Info: Per scaricare devi usare un client come uTorrent o Transmission
AnnounceURL
udp://tracker.coppersurfer.tk:6969/announce
Hash 63928060bc5d923da881d8fba2772225fc2cd148
Peers seeds: 101 , leech: 15
Size 1.62 GB
Completato 367x
Aggiunto 02.05.19 - 15:05:43
Uploader   Sfrank77
Votazione (Voti: 1)


Condividi questo bittorrent:


html/blog:


bbcode/forum:




Aggiungi Commento
Ultimi commenti
avatar   Sfrank77   
il SEED sta a zero, ma ci sono IO, tranquilli scaricate....
02/05 19.22
Tutti commenti (1)