* Dettagli Torrent   globale  | Commenti (0) 


- - Glass (2019).720p.Xvid.italian.Mp3.By Mul1n0 - -


Download via torrent:
Categoria bittorrent BDRip
Descrizione
[SIZE=17]Glass (2019)[/SIZE]



.: Scheda del Film :.

Titolo originale:  Glass
Nazionalità:   USA
Anno:  2019
Genere:   thiller
Regia:   M. Night Shyamalan

Cast:       James McAvoy: Kevin Wendell Crumb
  Bruce Willis: David Dunn
  Samuel L. Jackson: Elijah Price
  Anya Taylor-Joy: Casey Cooke
  Sarah Paulson: dott.ssa Ellie Staple
  Spencer Treat Clark: Joseph Dunn
  Charlayne Woodard: sig.ra Price
  Luke Kirby: Pierce
  M. Night Shyamalan: Jai

.: Trama :.


Tre settimane dopo che Kevin Wendell Crumb si è guadagnato il soprannome de "L'Orda", il vigilante David Dunn, coadiuvato dal figlio Joseph, ormai adulto e sempre al suo fianco nella lotta alla criminalità, si mette sulle sue tracce per salvare quattro cheerleader che Crumb ha rapito.

.: ScreenShot :.







.: Scheda tecnica del filmato :.


General
Complete name                            : C:- Glass (2019).720p.Xvid.italian.Mp3.By Mul1n0 - .avi
Format                                   : AVI
Format/Info                              : Audio Video Interleave
Format profile                           : OpenDML
File size                                : 1.37 GiB
Duration                                 : 2 h 9 min
Overall bit rate                         : 1 514 kb/s
Writing application                      : Lavf54.61.104

Video
ID                                       : 0
Format                                   : MPEG-4 Visual
Format profile                           : Advanced [email protected]
Format settings                          : BVOP2
Format settings, BVOP                    : 2
Format settings, QPel                    : No
Format settings, GMC                     : No warppoints
Format settings, Matrix                  : Default (H.263)
Codec ID                                 : XVID
Codec ID/Hint                            : XviD
Duration                                 : 2 h 9 min
Bit rate                                 : 1 377 kb/s
Width                                    : 720 pixels
Height                                   : 298 pixels
Display aspect ratio                     : 2.40:1
Original display aspect ratio            : 2.40:1
Frame rate                               : 23.976 (24000/1001) FPS
Color space                              : YUV
Chroma subsampling                       : 4:2:0
Bit depth                                : 8 bits
Scan type                                : Progressive
Compression mode                         : Lossy
Bits/(Pixel*Frame)                       : 0.268
Stream size                              : 1.24 GiB (91%)
Writing library                          : XviD 64

Audio
ID                                       : 1
Format                                   : MPEG Audio
Format version                           : Version 1
Format profile                           : Layer 3
Format settings                          : Joint stereo
Codec ID                                 : 55
Codec ID/Hint                            : MP3
Duration                                 : 2 h 9 min
Bit rate mode                            : Constant
Bit rate                                 : 128 kb/s
Channel(s)                               : 2 channels
Sampling rate                            : 48.0 kHz
Compression mode                         : Lossy
Stream size                              : 119 MiB (8%)
Alignment                                : Aligned on interleaves
Interleave, duration                     : 24  ms (0.57 video frame)




.: Note :.

Orario di seed e Banda disponibile: ai primi 10 completati, buon download

Info: Per scaricare devi usare un client come uTorrent o Transmission
AnnounceURL
udp://tracker.coppersurfer.tk:6969/announce
Hash 1c1024c572354685cb045fbb72212b3d92553c79
Peers seeds: 91 , leech: 37
Size 1.37 GB
Completato 319x
Aggiunto 23.04.19 - 14:04:45
Uploader   Sfrank77
Votazione (Voti: 0)


Condividi questo bittorrent:


html/blog:


bbcode/forum:




Aggiungi Commento