* Dettagli Torrent   globale  | Commenti (0) 


- Il sindaco, Italian politics for dummies by mu1ln0 -


Download via torrent:
Categoria bittorrent SerieTv
Descrizione
[align=center][SIZE=17]Il sindaco, Italian politics for dummies 2018 BY mul1n0[/SIZE]



.: Scheda del Film :.

Titolo originale: Il sindaco, Italian politics for dummies
Nazionalità: ITA
Anno: 2018
Genere: Inchiesta
Regia: Ismaele La Vardera

Cast: Ismaele La Vardera

.: Trama :.


La campagna elettorale di Ismaele La Vardera, candidato sostenuto da Matteo Salvini alle comunali di Palermo del 2017, raccontata attraverso le immagini "rubate" degli incontri privati sostenuti dallo stesso La Vardera con politici, faccendieri e personaggi più o meno opachi della scena palermitana. Intorno al candidato ventenne si concentrano molti interessi: quelli di chi vorrebbe riscattarsi agli occhi dell'elettorato meridionale, quelli di chi cerca il voto dei giovani e quelli di chi, sostenendo "il nuovo", desidera in realtà che tutto rimanga come è sempre stato.

.: ScreenShot :.



.: Scheda tecnica del filmato :.
[spoiler]

General
Complete name               : C:Il Sindaco - Italian Politics 4 Dummies.avi
Format                      : AVI
Format/Info                 : Audio Video Interleave
File size                   : 701 MiB
Duration                    : 1 h 15 min
Overall bit rate            : 1 300 kb/s
Writing application         : Lavf54.61.104

Video
ID                          : 0
Format                      : MPEG-4 Visual
Format profile              : Advanced [email protected]
Format settings             : BVOP2
Format settings, BVOP       : 2
Format settings, QPel       : No
Format settings, GMC        : No warppoints
Format settings, Matrix     : Default (H.263)
Codec ID                    : XVID
Codec ID/Hint               : XviD
Duration                    : 1 h 15 min
Bit rate                    : 1 159 kb/s
Width                       : 720 pixels
Height                      : 576 pixels
Display aspect ratio        : 16:9
Frame rate                  : 25.000 FPS
Standard                    : PAL
Color space                 : YUV
Chroma subsampling          : 4:2:0
Bit depth                   : 8 bits
Scan type                   : Progressive
Compression mode            : Lossy
Bits/(Pixel*Frame)          : 0.112
Stream size                 : 625 MiB (89%)
Writing library             : XviD 64

Audio
ID                          : 1
Format                      : MPEG Audio
Format version              : Version 1
Format profile              : Layer 3
Format settings             : Joint stereo / MS Stereo
Codec ID                    : 55
Codec ID/Hint               : MP3
Duration                    : 1 h 15 min
Bit rate mode               : Constant
Bit rate                    : 128 kb/s
Channel(s)                  : 2 channels
Sampling rate               : 48.0 kHz
Compression mode            : Lossy
Stream size                 : 69.1 MiB (10%)
Alignment                   : Aligned on interleaves
Interleave, duration        : 24  ms (0.60 video frame)
Writing library             : LAME3.99.5



[/spoiler]
.: Note :.

Orario di seed e Banda disponibile: 24/24 ai primi 10 completati, buon download

[/align]
Info: Per scaricare devi usare un client come uTorrent o Transmission
AnnounceURL
http://tracker.tntvillage.scambioetico.org:2710/announce
Hash 811a56a0dce06287057848860a4be11875eb84b5
Peers seeds: 19 , leech: 0
Size 701.32 MB
Completato 2679x
Aggiunto 17.12.18 - 07:12:42
Uploader   Sfrank77
Votazione (Voti: 0)


Condividi questo bittorrent:


html/blog:


bbcode/forum:




Aggiungi Commento