* Dettagli Torrent   globale  | Commenti (0) 


- LeIene21.10.2018ByMul1n0 -


Download via torrent:
Categoria bittorrent SerieTv
Descrizione
[align=center][SIZE=13] Le IENE BY Mul1n0 21-10-2018 [/SIZE]



.: Scheda del filmato :.

Anno:  2018
Genere:  Inchiesta
Regia:  Davide Parenti

.: Descrizione :.
[/align]

Inchieste giornalistiche e provocazioni satiriche nello stile irriverente e trasgressivo de Le Iene. In questa stagione, la conduzione della domenica è affidata a Nadia Toffa e, a rotazione, Giulio Golia, Matteo Viviani e Filippo Roma. Ogni mercoledì conducono, invece, Alessia Marcuzzi e Nicola Savino, in compagnia della Gialappa's Band.

[align=center].: ScreenShot :.



.: Scheda tecnica :.[spoiler]

General
Complete name                            : C:\LeIene21.10.2018ByMul1n0.avi
Format                                   : AVI
Format/Info                              : Audio Video Interleave
Format profile                           : OpenDML
File size                                : 2.06 GiB
Duration                                 : 3 h 15 min
Overall bit rate                         : 1 506 kb/s
Writing application                      : Lavf54.61.104

Video
ID                                       : 0
Format                                   : MPEG-4 Visual
Format profile                           : Advanced [email protected]
Format settings                          : BVOP2
Format settings, BVOP                    : 2
Format settings, QPel                    : No
Format settings, GMC                     : No warppoints
Format settings, Matrix                  : Default (H.263)
Codec ID                                 : XVID
Codec ID/Hint                            : XviD
Duration                                 : 3 h 15 min
Bit rate                                 : 1 366 kb/s
Width                                    : 720 pixels
Height                                   : 406 pixels
Display aspect ratio                     : 16:9
Original display aspect ratio            : 16:9
Frame rate                               : 25.000 FPS
Color space                              : YUV
Chroma subsampling                       : 4:2:0
Bit depth                                : 8 bits
Scan type                                : Progressive
Compression mode                         : Lossy
Bits/(Pixel*Frame)                       : 0.187
Stream size                              : 1.87 GiB (91%)
Writing library                          : XviD 64

Audio
ID                                       : 1
Format                                   : MPEG Audio
Format version                           : Version 1
Format profile                           : Layer 3
Format settings                          : Joint stereo / MS Stereo
Codec ID                                 : 55
Codec ID/Hint                            : MP3
Duration                                 : 3 h 15 min
Bit rate mode                            : Constant
Bit rate                                 : 128 kb/s
Channel(s)                               : 2 channels
Sampling rate                            : 48.0 kHz
Compression mode                         : Lossy
Stream size                              : 179 MiB (8%)
Alignment                                : Aligned on interleaves
Interleave, duration                     : 24  ms (0.60 video frame)


[/spoiler]

.: Note :.



Orario di seed e Banda disponibile:
Ai primi 10 completati, buon download

[/align]
Info: Per scaricare devi usare un client come uTorrent o Transmission
AnnounceURL
udp://tracker.coppersurfer.tk:6969
Hash 9629a05fefd53024424763e0dfa425d995b1022f
Peers seeds: 0 , leech: 0
Size 2.06 GB
Completato 0x
Aggiunto 22.10.18 - 14:10:44
Uploader   Sfrank77
Votazione (Voti: 0)


Condividi questo bittorrent:


html/blog:


bbcode/forum:




Aggiungi Commento