* Dettagli Torrent   globale  | Commenti (1) 


- Prisoners (2013) [XviD - Italian English Ac3 5.1 - Ita Eng Spa] MIRCrew -


Download via torrent:
Categoria bittorrent BDRip
Descrizione
Prisoners (2013) [XviD - Italian English Ac3 5.1 - Ita Eng Spa] MIRCrew




[center]

NO FOUND ONLY ORIGINAL RELEASE

Prisoners (2013)



 



Titolo originale Prisoners
Lingua originale inglese
Paese di produzione Stati Uniti d'America
Anno 2013
Durata 153 min
Colore colore
Audio sonoro
Genere thriller, drammatico
Regia Denis Villeneuve
Soggetto Aaron Guzikowski
Sceneggiatura Aaron Guzikowski
Produttore Kira Davis, Broderick Johnson, Adam Kolbrenner, Andrew A. Kosove, Robyn Meisinger
Produttore esecutivo John H. Starke
Casa di produzione 8:38 Productions, Alcon Entertainment, Madhouse Entertainment
Distribuzione (Italia) Warner Bros.
Fotografia Roger Deakins
Montaggio Gary D. Roach, Joel Cox
Effetti speciali Scanlan Backus, Aj Dzenowagis, Michael Dzenowagis
Musiche Jóhann Jóhannsson
Scenografia Patrice Vermette
Trucco Carol Rasheed










 
   Hugh Jackman: Keller Dover
   Jake Gyllenhaal: Detective Loki
   Maria Bello: Grace Dover
   Terrence Howard: Franklin Birch
   Paul Dano: Alex Jones
   Viola Davis: Nancy Birch
   Melissa Leo: Holly Jones
   Mike Gassaway: Detective Rand
   Dylan Minnette: Ralph Dover
   Len Cariou: Padre Dunn
   Wayne Duvall: Capitano Richard O'Malley
   Brad James: Carter

Doppiatori italiani

   Fabrizio Pucci: Keller Dover
   Fabrizio Vidale: Detective Loki
   Francesca Fiorentini: Grace Dover
   Stefano Brusa: Franklin Birch
   Emiliano Coltorti: Alex Jones
   Alessandra Cassioli: Nancy Birch
   Maria Pia Di Meo: Holly Jones
   Flavio Aquilone: Ralph Dover
   Renzo Stacchi: Capitano Richard O'Malley








La famiglia Dover conduce una vita serena in una tranquilla cittadina dello stato della Pennsylvania; durante i festeggiamenti per il Giorno del ringraziamento la piccola ultimogenita Anna improvvisamente scompare nel nulla assieme alla coetanea Joy Birch, figlia di amici di famiglia. Il padre di Anna, Keller, inizia le ricerche delle due piccole focalizzando sin dal principio la sua attenzione su un camper che sostava nella zona fino a poco prima della scomparsa.



How far would you go to protect your family? Keller Dover is facing every parent's worst nightmare. His six-year-old daughter, Anna, is missing, together with her young friend, Joy, and as minutes turn to hours, panic sets in. The only lead is a dilapidated RV that had earlier been parked on their street. Heading the investigation, Detective Loki arrests its driver, Alex Jones, but a lack of evidence forces his release.




[spoiler]

General
Complete name                            : Prisoners (2013).Ita.Eng.Sub.ita.eng.spa.MIRCrew\Prisoners (2013).Ita.Eng.Sub.ita.eng.spa.avi
Format                                   : AVI
Format/Info                              : Audio Video Interleave
Format profile                           : OpenDML
File size                                : 2.15 GiB
Duration                                 : 2h 26mn
Overall bit rate                         : 2 095 Kbps
Writing application                      : VirtualDubMod 1.5.4.1 (build 2178/release)
Writing library                          : VirtualDubMod build 2178/release

Video
ID                                       : 0
Format                                   : MPEG-4 Visual
Format profile                           : Advanced [email protected]
Format settings, BVOP                    : No
Format settings, QPel                    : No
Format settings, GMC                     : No warppoints
Format settings, Matrix                  : Custom
Codec ID                                 : XVID
Codec ID/Hint                            : XviD
Duration                                 : 2h 26mn
Bit rate                                 : 1 316 Kbps
Width                                    : 720 pixels
Height                                   : 400 pixels
Display aspect ratio                     : 16:9
Frame rate                               : 25.000 fps
Color space                              : YUV
Chroma subsampling                       : 4:2:0
Bit depth                                : 8 bits
Scan type                                : Progressive
Compression mode                         : Lossy
Bits/(Pixel*Frame)                       : 0.183
Stream size                              : 1.35 GiB (63%)
Writing library                          : XviD 1.2.0.dev47 (UTC 2006-11-01)

Audio #1
ID                                       : 1
Format                                   : AC-3
Format/Info                              : Audio Coding 3
Mode extension                           : CM (complete main)
Codec ID                                 : 2000
Duration                                 : 2h 26mn
Bit rate mode                            : Constant
Bit rate                                 : 384 Kbps
Channel(s)                               : 6 channels
Channel positions                        : Front: L C R, Side: L R, LFE
Sampling rate                            : 48.0 KHz
Bit depth                                : 16 bits
Compression mode                         : Lossy
Stream size                              : 404 MiB (18%)
Alignment                                : Split accross interleaves
Interleave, duration                     : 96 ms (2.40 video frames)
Interleave, preload duration             : 96 ms
Language                                 : Italian

Audio #2
ID                                       : 2
Format                                   : AC-3
Format/Info                              : Audio Coding 3
Mode extension                           : CM (complete main)
Codec ID                                 : 2000
Duration                                 : 2h 26mn
Bit rate mode                            : Constant
Bit rate                                 : 384 Kbps
Channel(s)                               : 6 channels
Channel positions                        : Front: L C R, Side: L R, LFE
Sampling rate                            : 48.0 KHz
Bit depth                                : 16 bits
Compression mode                         : Lossy
Stream size                              : 404 MiB (18%)
Alignment                                : Split accross interleaves
Interleave, duration                     : 96 ms (2.40 video frames)
Interleave, preload duration             : 96 ms
Language                                 : English




[/spoiler]


[/center]
Info: Per scaricare devi usare un client come uTorrent o Transmission
AnnounceURL
http://tracker.torrentfrancais.com/announce
Hash 2f8f04cd8a6490b2e6a23b861041c9cb0ebcc2a3
Peers seeds: 143 , leech: 140
Size 2.16 GB
Completato 1006x
Aggiunto 02.06.14 - 15:06:03
Uploader   robbyrs
Votazione (Voti: 1)


Condividi questo bittorrent:


html/blog:


bbcode/forum:




Aggiungi Commento
Ultimi commenti
  
film stupendo da vedere assolutamente
06/06 16.25
Tutti commenti (1)