* Dettagli Torrent   globale  | Commenti (0) 


- The.Acolyte.La.Seguace.S01E07.Scelta.ITA.ENG.2160p.DSNP.WEB-DL.DDP5.1.DV.HDR.H.265-MeM.GP.mkv -


Download via torrent:
Categoria bittorrent SerieTv
Descrizione
[center][/center]
[center]The.Acolyte.La.Seguace.S01.ITA.ENG.2160p.DSNP.WEB-DL.DDP5.1.DV.HDR.H.265-MeM.GP.mkv[/center]



[center]
Titolo Originale:The.Acolyte
Stagione: Miniserie
Episodi: 08
Durata:  40 min (episodio)
Genere: Mistero, Sci-Fi & Fantasy
Network:

Interpreti e personaggi
•        Amandla Stenberg: Mae Aniseya / Osha Aniseya
•        Lee Jung-jae as Master Sol
•        Charlie Barnett: Yord Fandar
•        Dafne Keen: Jecki Lon
•        Manny Jacinto: Qimir
•        Rebecca Henderson: Master Vernestra Rwoh
•        Joonas Suotamo: Master Kelnacca



Trama:

Un centinaio di anni prima dell’ascesa dell’Impero, l’Ordine dei Jedi e la
Repubblica Galattica hanno prosperato per secoli senza guerre. In questo
tempo un’indagine su una scioccante serie di omicidi mette un Maestro Jedi
contro una pericolosa guerriera dal suo passato.





[/center]

[center]
Sorgente Video: DSNP WEB-DL
Sorgente Audio: Disney
Risoluzione: 3840x2160, x265
Audio 1: ITA  E-AC-3  6Ch @ 256 kb/s
Audio 2: ENG  E-AC-3 JOC  6Ch @ 768 kb/s
Sottotitoli: ITA FORCED, ITA , ENG ENG SDH[/center]


Code

The.Acolyte.La.Seguace.S01E01.Perso.Ritrovato.ITA.ENG.2160p.DSNP.WEB-DL.DDP5.1.DV.HDR.H.265-MeM.GP.mkv
Format                                   : Matroska
Format version                           : Version 4
File size                                : 4.53 GiB
Duration                                 : 40 min 56 s
Overall bit rate                         : 15.9 Mb/s
Frame rate                               : 24.000 FPS
Encoded date                             : 2024-06-05 10:10:11 UTC
Writing application                      : mkvmerge v85.0 ('Shame For You&#39 64-bit
Writing library                          : libebml v1.4.5 + libmatroska v1.7.1

Video
ID                                       : 1
Format                                   : HEVC
Format/Info                              : High Efficiency Video Coding
Format profile                           : Main 10@L5@High
HDR format                               : Dolby Vision, Version 1.0, Profile 8.1, dvhe.08.06, BL+RPU, HDR10 compatible / SMPTE ST 2086, Version HDR10, HDR10 compatible
Codec ID                                 : V_MPEGH/ISO/HEVC
Duration                                 : 40 min 47 s
Bit rate                                 : 14.9 Mb/s
Width                                    : 3 840 pixels
Height                                   : 2 160 pixels
Display aspect ratio                     : 16:9
Frame rate mode                          : Constant
Frame rate                               : 24.000 FPS
Color space                              : YUV
Chroma subsampling                       : 4:2:0
Bit depth                                : 10 bits
Bits/(Pixel*Frame)                       : 0.075
Stream size                              : 4.24 GiB (94%)
Language                                 : English
Default                                  : Yes
Forced                                   : No
Color range                              : Limited
Color primaries                          : BT.2020
Transfer characteristics                 : PQ
Matrix coefficients                      : BT.2020 non-constant
Mastering display color primaries        : BT.2020
Mastering display luminance              : min: 0.0000 cd/m2, max: 1000 cd/m2

Audio #1
ID                                       : 2
Format                                   : E-AC-3
Format/Info                              : Enhanced AC-3
Commercial name                          : Dolby Digital Plus
Codec ID                                 : A_EAC3
Duration                                 : 40 min 56 s
Bit rate mode                            : Constant
Bit rate                                 : 256 kb/s
Channel(s)                               : 6 channels
Channel layout                           : L R C LFE Ls Rs
Sampling rate                            : 48.0 kHz
Frame rate                               : 31.250 FPS (1536 SPF)
Compression mode                         : Lossy
Stream size                              : 75.0 MiB (2%)
Language                                 : Italian
Service kind                             : Complete Main
Default                                  : Yes
Forced                                   : No

Audio #2
ID                                       : 3
Format                                   : E-AC-3 JOC
Format/Info                              : Enhanced AC-3 with Joint Object Coding
Commercial name                          : Dolby Digital Plus with Dolby Atmos
Codec ID                                 : A_EAC3
Duration                                 : 40 min 47 s
Bit rate mode                            : Constant
Bit rate                                 : 768 kb/s
Channel(s)                               : 6 channels
Channel layout                           : L R C LFE Ls Rs
Sampling rate                            : 48.0 kHz
Frame rate                               : 31.250 FPS (1536 SPF)
Compression mode                         : Lossy
Stream size                              : 224 MiB (5%)
Language                                 : English
Service kind                             : Complete Main
Default                                  : No
Forced                                   : No
Complexity index                         : 16
Number of dynamic objects                : 15
Bed channel count                        : 1 channel
Bed channel configuration                : LFE

Text #1
ID                                       : 4
Format                                   : UTF-8
Codec ID                                 : S_TEXT/UTF8
Codec ID/Info                            : UTF-8 Plain Text
Duration                                 : 7 min 0 s
Bit rate                                 : 7 b/s
Frame rate                               : 0.019 FPS
Count of elements                        : 8
Stream size                              : 372 Bytes (0%)
Title                                    : Forced
Language                                 : Italian
Default                                  : Yes
Forced                                   : Yes

Text #2
ID                                       : 5
Format                                   : UTF-8
Codec ID                                 : S_TEXT/UTF8
Codec ID/Info                            : UTF-8 Plain Text
Duration                                 : 35 min 41 s
Bit rate                                 : 35 b/s
Frame rate                               : 0.151 FPS
Count of elements                        : 324
Stream size                              : 9.32 KiB (0%)
Language                                 : English
Default                                  : No
Forced                                   : No

Text #3
ID                                       : 6
Format                                   : UTF-8
Codec ID                                 : S_TEXT/UTF8
Codec ID/Info                            : UTF-8 Plain Text
Duration                                 : 36 min 37 s
Bit rate                                 : 49 b/s
Frame rate                               : 0.225 FPS
Count of elements                        : 494
Stream size                              : 13.4 KiB (0%)
Title                                    : SDH
Language                                 : English
Default                                  : No
Forced                                   : No

Text #4
ID                                       : 7
Format                                   : UTF-8
Codec ID                                 : S_TEXT/UTF8
Codec ID/Info                            : UTF-8 Plain Text
Duration                                 : 40 min 8 s
Bit rate                                 : 33 b/s
Frame rate                               : 0.134 FPS
Count of elements                        : 322
Stream size                              : 9.93 KiB (0%)
Language                                 : Italian
Default                                  : No
Forced                                   : No

Menu
00:07:21.000                             : en:Intro
00:07:30.333                             : en:Scene 1
00:07:30.375                             : en:Scene 2
00:11:46.417                             : en:Scene 3
00:15:46.500                             : en:Scene 4
00:24:30.417                             : en:Scene 5
00:31:34.667                             : en:Scene 6
00:36:59.917                             : en:Credits



[center]






[/center]
Info: Per scaricare devi usare un client come uTorrent o Transmission
AnnounceURL
udp://tracker.opentrackr.org:1337/announce
Hash 62ab842ce0b50d4610dd45dc79704c5c47a3dadd
Peers seeds: 0 , leech: 0
Size 4.61 GB
Completato 0x
Aggiunto 10.07.24 - 12:07:27
Uploader   ppb1
Votazione (Voti: 0)


Condividi questo bittorrent:


html/blog:


bbcode/forum:




Aggiungi Commento