* Dettagli Torrent   globale  | Commenti (0) 


- House.of.the.Dragon.S02E04.La.danza.dei.draghi.ITA.ENG.2160p.MAX.WEB-DL.DDP5.1.DV.HDR.H.265-MeM.GP.m -


Download via torrent:
Categoria bittorrent SerieTv
Descrizione
[center][/center]
[center]House.of.the.Dragon.S02.ITA.ENG.2160p.MAX.WEB-DL.DDP5.1.DV.HDR.H.265-MeM.GP[/center]



[center]
Titolo Originale: House of the Dragon
Anno: 2024
Stagione: 02
Episodi: 08
Durata: 55 min (episodio)
Genere: Sci-Fi & Fantasy, Dramma, Action & Adventure
Network:

Interpreti e personaggi
•     Emma D'Arcy: Princess Rhaenyra Targaryen
•     Olivia Cooke: Alicent Hightower
•     Matt Smith: Prince Daemon Targaryen
•     Rhys Ifans: Ser Otto Hightower
•     Paddy Considine: King Viserys I Targaryen
•     Jefferson Hall: Ser Tyland Lannister and Lord Jason Lannister
•     Fabien Frankel: Ser Criston Cole
•     Graham McTavish: Ser Harrold Westerling
•     Bill Paterson: Lord Lyman Beesbury





Trama:

Tratta dal romanzo Fuoco e Sangue di George R.R. Martin, la serie è ambientata 200 anni prima degli eventi citati ne Il Trono di Spade e racconta la storia della leggendaria Casa Targaryen. Dopo l'incoronazione di re Aegon II, la seconda stagione di House of the Dragon segue i “Verdi" e i "Neri" mentre inizia la Danza dei Draghi. I nuovi episodi vedranno infatti il regno spaccarsi: ciascuna delle due fazioni ritiene legittima la propria aspirazione al Trono di Spade, e tutti dovranno scegliere per quale fazione di Casa Targaryen schierarsi.




  [/center]

[center]
Sorgente Video: House.of.the.Dragon.S02E01.A.Son.for.a.Son.2160p.MAX.WEB-DL.DDP5.1.Atmos.DV.HDR.H.265-FLUX
Sorgente Audio: Now TV
Risoluzione: 3840x1920, x265,
Audio 1: ITA E-AC-3 6ch @192 kb/s
Audio 2: ENG E-AC-3 6ch @640 kb/s
Sottotitoli:  ITA FORCED, ITA ENG FULL SDH[/center]

Code


House.of.the.Dragon.S02E01.Un.figlio.per.un.figlio.ITA.ENG..2160p.MAX.WEB-DL.DDP5.1.DV.HDR.H.265-MeM.GP.mkv
Format                                   : Matroska
Format version                           : Version 4
File size                                : 9.00 GiB
Duration                                 : 55 min 40 s
Overall bit rate                         : 23.2 Mb/s
Frame rate                               : 25.000 FPS
Encoded date                             : 2024-06-17 08:59:21 UTC
Writing application                      : mkvmerge v85.0 ('Shame For You&#39 64-bit
Writing library                          : libebml v1.4.5 + libmatroska v1.7.1

Video
ID                                       : 1
Format                                   : HEVC
Format/Info                              : High Efficiency Video Coding
Format profile                           : Main [email protected]@Main
HDR format                               : Dolby Vision, Version 1.0, Profile 8.1, dvhe.08.06, BL+RPU, HDR10 compatible / SMPTE ST 2086, Version HDR10, HDR10 compatible
Codec ID                                 : V_MPEGH/ISO/HEVC
Duration                                 : 55 min 40 s
Bit rate                                 : 22.3 Mb/s
Width                                    : 3 840 pixels
Height                                   : 1 920 pixels
Display aspect ratio                     : 2.000
Frame rate mode                          : Constant
Frame rate                               : 25.000 FPS
Original frame rate                      : 23.976 (24000/1001) FPS
Color space                              : YUV
Chroma subsampling                       : 4:2:0 (Type 0)
Bit depth                                : 10 bits
Bits/(Pixel*Frame)                       : 0.121
Stream size                              : 8.68 GiB (96%)
Writing library                          : x265 3.5+1-f0c1022b6:[Linux][GCC 10.2.1][64 bit] 10bit
Encoding settings                        : cpuid=1176575 / frame-threads=4 / wpp / no-pmode / no-pme / no-psnr / no-ssim / log-level=2 / input-csp=1 / input-res=3840x1920 / interlace=0 / total-frames=0 / level-idc=0 / high-tier=0 / uhd-bd=0 / ref=3 / no-allow-non-conformance / repeat-headers / annexb / aud / no-eob / no-eos / hrd / info / hash=0 / no-temporal-layers / no-open-gop / min-keyint=96 / keyint=96 / gop-lookahead=0 / bframes=4 / b-adapt=2 / b-pyramid / bframe-bias=0 / rc-lookahead=96 / lookahead-slices=8 / scenecut=40 / no-hist-scenecut / radl=0 / no-splice / no-intra-refresh / ctu=64 / min-cu-size=8 / no-rect / no-amp / max-tu-size=32 / tu-inter-depth=1 / tu-intra-depth=1 / limit-tu=0 / rdoq-level=0 / dynamic-rd=0.00 / no-ssim-rd / signhide / no-tskip / nr-intra=0 / nr-inter=0 / no-constrained-intra / strong-intra-smoothing / max-merge=3 / limit-refs=1 / no-limit-modes / me=1 / subme=2 / merange=57 / temporal-mvp / no-frame-dup / no-hme / weightp / weightb / no-analyze-src-pics / deblock=0:0 / no-sao / no-sao-non-deblock / rd=3 / selective-sao=0 / early-skip / rskip / no-fast-intra / no-tskip-fast / no-cu-lossless / b-intra / no-splitrd-skip / rdpenalty=0 / psy-rd=2.00 / psy-rdoq=0.00 / no-rd-refine / no-lossless / cbqpoffs=0 / crqpoffs=0 / rc=crf / crf=11.0 / qcomp=0.60 / qpstep=4 / stats-write=0 / stats-read=0 / vbv-maxrate=21900 / vbv-bufsize=40000 / vbv-init=0.9 / min-vbv-fullness=50.0 / max-vbv-fullness=80.0 / crf-max=0.0 / crf-min=0.0 / ipratio=1.40 / pbratio=1.30 / aq-mode=2 / aq-strength=1.00 / cutree / zone-count=0 / no-strict-cbr / qg-size=32 / no-rc-grain / qpmax=69 / qpmin=0 / no-const-vbv / sar=1 / overscan=0 / videoformat=5 / range=0 / colorprim=9 / transfer=16 / colormatrix=9 / chromaloc=1 / chromaloc-top=0 / chromaloc-bottom=0 / display-window=0 / master-display=G(13250,34500)B(7500,3000)R(34000,16000)WP(15635,16450)L(10000000,1) / cll=962,566 / min-luma=0 / max-luma=1023 / log2-max-poc-lsb=8 / vui-timing-info / vui-hrd-info / slices=1 / no-opt-qp-pps / no-opt-ref-list-length-pps / no-multi-pass-opt-rps / scenecut-bias=0.05 / hist-threshold=0.03 / no-opt-cu-delta-qp / no-aq-motion / hdr10 / hdr10-opt / no-dhdr10-opt / no-idr-recovery-sei / analysis-reuse-level=0 / analysis-save-reuse-level=0 / analysis-load-reuse-level=0 / scale-factor=0 / refine-intra=0 / refine-inter=0 / refine-mv=1 / refine-ctu-distortion=0 / no-limit-sao / ctu-info=0 / no-lowpass-dct / refine-analysis-type=0 / copy-pic=1 / max-ausize-factor=1.0 / no-dynamic-refine / no-single-sei / no-hevc-aq / no-svt / no-field / qp-adaptation-range=1.00 / scenecut-aware-qp=0conformance-window-offsets / right=0 / bottom=0 / decoder-max-rate=0 / no-vbv-live-multi-pass
Language                                 : English
Default                                  : Yes
Forced                                   : No
Color range                              : Limited
Color primaries                          : BT.2020
Transfer characteristics                 : PQ
Matrix coefficients                      : BT.2020 non-constant
Mastering display color primaries        : Display P3
Mastering display luminance              : min: 0.0001 cd/m2, max: 1000 cd/m2
Maximum Content Light Level              : 962 cd/m2
Maximum Frame-Average Light Level        : 566 cd/m2

Audio #1
ID                                       : 2
Format                                   : E-AC-3
Format/Info                              : Enhanced AC-3
Commercial name                          : Dolby Digital Plus
Codec ID                                 : A_EAC3
Duration                                 : 55 min 40 s
Bit rate mode                            : Constant
Bit rate                                 : 192 kb/s
Channel(s)                               : 6 channels
Channel layout                           : L R C LFE Ls Rs
Sampling rate                            : 48.0 kHz
Frame rate                               : 31.250 FPS (1536 SPF)
Compression mode                         : Lossy
Delay relative to video                  : 8 ms
Stream size                              : 76.5 MiB (1%)
Language                                 : Italian
Service kind                             : Complete Main
Default                                  : Yes
Forced                                   : No

Audio #2
ID                                       : 3
Format                                   : E-AC-3
Format/Info                              : Enhanced AC-3
Commercial name                          : Dolby Digital Plus
Codec ID                                 : A_EAC3
Duration                                 : 55 min 40 s
Bit rate mode                            : Constant
Bit rate                                 : 640 kb/s
Channel(s)                               : 6 channels
Channel layout                           : L R C LFE Ls Rs
Sampling rate                            : 48.0 kHz
Frame rate                               : 31.250 FPS (1536 SPF)
Compression mode                         : Lossy
Stream size                              : 255 MiB (3%)
Language                                 : English
Service kind                             : Complete Main
Default                                  : No
Forced                                   : No

Text #1
ID                                       : 4
Format                                   : UTF-8
Codec ID                                 : S_TEXT/UTF8
Codec ID/Info                            : UTF-8 Plain Text
Duration                                 : 3 s 181 ms
Bit rate                                 : 50 b/s
Frame rate                               : 0.629 FPS
Count of elements                        : 2
Stream size                              : 20.0 Bytes (0%)
Title                                    : Forced
Language                                 : Italian
Default                                  : Yes
Forced                                   : Yes

Text #2
ID                                       : 5
Format                                   : UTF-8
Codec ID                                 : S_TEXT/UTF8
Codec ID/Info                            : UTF-8 Plain Text
Duration                                 : 54 min 31 s
Bit rate                                 : 58 b/s
Frame rate                               : 0.206 FPS
Count of elements                        : 675
Stream size                              : 23.5 KiB (0%)
Language                                 : Italian
Default                                  : No
Forced                                   : No

Text #3
ID                                       : 6
Format                                   : UTF-8
Codec ID                                 : S_TEXT/UTF8
Codec ID/Info                            : UTF-8 Plain Text
Duration                                 : 54 min 31 s
Bit rate                                 : 54 b/s
Frame rate                               : 0.188 FPS
Count of elements                        : 614
Stream size                              : 21.8 KiB (0%)
Language                                 : Italian
Default                                  : No
Forced                                   : No

Text #4
ID                                       : 7
Format                                   : UTF-8
Codec ID                                 : S_TEXT/UTF8
Codec ID/Info                            : UTF-8 Plain Text
Duration                                 : 51 min 58 s
Bit rate                                 : 53 b/s
Frame rate                               : 0.187 FPS
Count of elements                        : 584
Stream size                              : 20.3 KiB (0%)
Language                                 : English (US)
Default                                  : No
Forced                                   : No

Text #5
ID                                       : 8
Format                                   : UTF-8
Codec ID                                 : S_TEXT/UTF8
Codec ID/Info                            : UTF-8 Plain Text
Duration                                 : 55 min 24 s
Bit rate                                 : 59 b/s
Frame rate                               : 0.240 FPS
Count of elements                        : 797
Stream size                              : 24.0 KiB (0%)
Title                                    : SDH
Language                                 : English (US)
Default                                  : No
Forced                                   : No






[center]



[/center]
Info: Per scaricare devi usare un client come uTorrent o Transmission
AnnounceURL
udp://tracker.opentrackr.org:1337/announce
Hash 16a9927f4244e6cc0a372bdb102766920e85dab4
Peers seeds: 0 , leech: 0
Size 8.50 GB
Completato 0x
Aggiunto 08.07.24 - 20:07:06
Uploader   ppb1
Votazione (Voti: 0)


Condividi questo bittorrent:


html/blog:


bbcode/forum:




Aggiungi Commento