* Dettagli Torrent   globale  | Commenti (0) 


- 1899.S01.ITA-ENG.2160p.NF.WEB-DL.DDP5.1.Atmos.DV.HDR.H.265-gattopollo -


Download via torrent:
Categoria bittorrent SerieTv
Descrizione
[center].:: TITOLO ::.[/center]

[center]1899.S01.ITA-ENG.2160p.NF.WEB-DL.DDP5.1.Atmos.DV.HDR.H.265-gattopollo[/center]

[center][/center]

[center].:: INFO SERIE ::.[/center]

[center]Titolo Originale: 1899
Anno: 2022
Stagione: 1
Episodi: 08
Durata: 60min (episodio)
Genere: drammatico, storico, orrore
Network: Netflix
IMDb

.:: TRAMA ::.

1899. I migranti a bordo di una nave che attraversa l'Oceano Atlantico sono di varie nazionalità, età ed estrazione sociale, ma tutti affrontano il viaggio dall'Europa verso New York con la speranza di un futuro migliore. Nel bel mezzo del viaggio, la nave si imbatte in un'altra imbarcazione alla deriva, che si rivelerà piena di mistero e problemi.


.:: SCREENSHOT ::.


[/center]

[center].:: INFO TECNICHE ::.

Sorgente Video :  NF (Iniettati metadati Dolby Vision in sorgente HDR10)
Sorgente Audio : NF
Risoluzione: 3840x2160, H.265
Audio 1: ITA E-AC3 JOC 6ch @768kb/s
Audio 2: ENG E-AC3 JOC 6ch @768kb/s
Sottotitoli: ITA FORCED, ITA REGULAR, ENG REGULAR, ENG SDH, etc [/center]

[center].:: MEDIAINFO ::.[/center]


Code

General
Unique ID                                : 91977381777271997346352740785729821857 (0x4532330A60FB8939F2A21C31487FDCA1)
Complete name                            : 1899.S01E01.La.Nave.ITA-ENG.2160p.NF.WEB-DL.DDP5.1.Atmos.DV.HDR.H.265-gattopollo.mkv
Format                                   : Matroska
Format version                           : Version 4
File size                                : 4.41 GiB
Duration                                 : 1 h 0 min
Overall bit rate                         : 10.5 Mb/s
Encoded date                             : UTC 2022-11-29 13:32:34
Writing application                      : mkvmerge v72.0.0 ('Minuano (Six-eight)&#39 64-bit
Writing library                          : libebml v1.4.4 + libmatroska v1.7.1

Video
ID                                       : 1
Format                                   : HEVC
Format/Info                              : High Efficiency Video Coding
Format profile                           : Main [email protected]@Main
HDR format                               : Dolby Vision, Version 1.0, dvhe.08.06, BL+RPU, HDR10 compatible / SMPTE ST 2086, HDR10 compatible
Codec ID                                 : V_MPEGH/ISO/HEVC
Duration                                 : 58 min 22 s
Bit rate                                 : 9 242 kb/s
Width                                    : 3 840 pixels
Height                                   : 2 160 pixels
Display aspect ratio                     : 16:9
Frame rate mode                          : Constant
Frame rate                               : 24.000 FPS
Color space                              : YUV
Chroma subsampling                       : 4:2:0 (Type 2)
Bit depth                                : 10 bits
Bits/(Pixel*Frame)                       : 0.046
Stream size                              : 3.77 GiB (85%)
Language                                 : English
Default                                  : Yes
Forced                                   : No
Color range                              : Limited
Color primaries                          : BT.2020
Transfer characteristics                 : PQ
Matrix coefficients                      : BT.2020 non-constant
Mastering display color primaries        : Display P3
Mastering display luminance              : min: 0.0001 cd/m2, max: 1000 cd/m2
Maximum Content Light Level              : 756 cd/m2
Maximum Frame-Average Light Level        : 97 cd/m2

Audio #1
ID                                       : 2
Format                                   : E-AC-3 JOC
Format/Info                              : Enhanced AC-3 with Joint Object Coding
Commercial name                          : Dolby Digital Plus with Dolby Atmos
Codec ID                                 : A_EAC3
Duration                                 : 1 h 0 min
Bit rate mode                            : Constant
Bit rate                                 : 768 kb/s
Channel(s)                               : 6 channels
Channel layout                           : L R C LFE Ls Rs
Sampling rate                            : 48.0 kHz
Frame rate                               : 31.250 FPS (1536 SPF)
Compression mode                         : Lossy
Stream size                              : 330 MiB (7%)
Language                                 : Italian
Service kind                             : Complete Main
Default                                  : Yes
Forced                                   : No
Complexity index                         : 16
Number of dynamic objects                : 15
Bed channel count                        : 1 channel
Bed channel configuration                : LFE

Audio #2
ID                                       : 3
Format                                   : E-AC-3 JOC
Format/Info                              : Enhanced AC-3 with Joint Object Coding
Commercial name                          : Dolby Digital Plus with Dolby Atmos
Codec ID                                 : A_EAC3
Duration                                 : 1 h 0 min
Bit rate mode                            : Constant
Bit rate                                 : 768 kb/s
Channel(s)                               : 6 channels
Channel layout                           : L R C LFE Ls Rs
Sampling rate                            : 48.0 kHz
Frame rate                               : 31.250 FPS (1536 SPF)
Compression mode                         : Lossy
Stream size                              : 330 MiB (7%)
Language                                 : English
Service kind                             : Complete Main
Default                                  : No
Forced                                   : No
Complexity index                         : 16
Number of dynamic objects                : 15
Bed channel count                        : 1 channel
Bed channel configuration                : LFE

Text #1
ID                                       : 4
Format                                   : UTF-8
Codec ID                                 : S_TEXT/UTF8
Codec ID/Info                            : UTF-8 Plain Text
Duration                                 : 55 min 52 s
Bit rate                                 : 0 b/s
Frame rate                               : 0.004 FPS
Count of elements                        : 15
Stream size                              : 383 Bytes (0%)
Title                                    : Forced
Language                                 : Italian
Default                                  : Yes
Forced                                   : Yes

Text #2
ID                                       : 5
Format                                   : UTF-8
Codec ID                                 : S_TEXT/UTF8
Codec ID/Info                            : UTF-8 Plain Text
Duration                                 : 57 min 58 s
Bit rate                                 : 29 b/s
Frame rate                               : 0.131 FPS
Count of elements                        : 456
Stream size                              : 12.4 KiB (0%)
Title                                    : v1
Language                                 : Italian
Default                                  : No
Forced                                   : No

Text #3
ID                                       : 6
Format                                   : UTF-8
Codec ID                                 : S_TEXT/UTF8
Codec ID/Info                            : UTF-8 Plain Text
Duration                                 : 54 min 9 s
Bit rate                                 : 36 b/s
Frame rate                               : 0.148 FPS
Count of elements                        : 482
Stream size                              : 14.3 KiB (0%)
Title                                    : v2
Language                                 : Italian
Default                                  : No
Forced                                   : No

Text #4
ID                                       : 7
Format                                   : UTF-8
Codec ID                                 : S_TEXT/UTF8
Codec ID/Info                            : UTF-8 Plain Text
Duration                                 : 46 min 45 s
Bit rate                                 : 20 b/s
Frame rate                               : 0.097 FPS
Count of elements                        : 271
Stream size                              : 7.13 KiB (0%)
Title                                    : Forced
Language                                 : English
Default                                  : No
Forced                                   : Yes

Text #5
ID                                       : 8
Format                                   : UTF-8
Codec ID                                 : S_TEXT/UTF8
Codec ID/Info                            : UTF-8 Plain Text
Duration                                 : 27 min 2 s
Bit rate                                 : 0 b/s
Frame rate                               : 0.004 FPS
Count of elements                        : 7
Stream size                              : 132 Bytes (0%)
Title                                    : Forced
Language                                 : English
Default                                  : No
Forced                                   : Yes

Text #6
ID                                       : 9
Format                                   : UTF-8
Codec ID                                 : S_TEXT/UTF8
Codec ID/Info                            : UTF-8 Plain Text
Duration                                 : 56 min 35 s
Bit rate                                 : 50 b/s
Frame rate                               : 0.207 FPS
Count of elements                        : 702
Stream size                              : 21.1 KiB (0%)
Title                                    : SDH
Language                                 : English
Default                                  : No
Forced                                   : No

Text #7
ID                                       : 10
Format                                   : UTF-8
Codec ID                                 : S_TEXT/UTF8
Codec ID/Info                            : UTF-8 Plain Text
Duration                                 : 54 min 2 s
Bit rate                                 : 35 b/s
Frame rate                               : 0.147 FPS
Count of elements                        : 476
Stream size                              : 14.0 KiB (0%)
Language                                 : English
Default                                  : No
Forced                                   : No

Text #8
ID                                       : 11
Format                                   : UTF-8
Codec ID                                 : S_TEXT/UTF8
Codec ID/Info                            : UTF-8 Plain Text
Duration                                 : 56 min 35 s
Bit rate                                 : 49 b/s
Frame rate                               : 0.207 FPS
Count of elements                        : 702
Stream size                              : 20.6 KiB (0%)
Title                                    : SDH
Language                                 : English
Default                                  : No
Forced                                   : No

Text #9
ID                                       : 12
Format                                   : UTF-8
Codec ID                                 : S_TEXT/UTF8
Codec ID/Info                            : UTF-8 Plain Text
Duration                                 : 57 min 58 s
Bit rate                                 : 52 b/s
Frame rate                               : 0.137 FPS
Count of elements                        : 478
Stream size                              : 22.2 KiB (0%)
Language                                 : Arabic
Default                                  : No
Forced                                   : No

Text #10
ID                                       : 13
Format                                   : UTF-8
Codec ID                                 : S_TEXT/UTF8
Codec ID/Info                            : UTF-8 Plain Text
Duration                                 : 57 min 58 s
Bit rate                                 : 28 b/s
Frame rate                               : 0.132 FPS
Count of elements                        : 460
Stream size                              : 12.1 KiB (0%)
Language                                 : Czech
Default                                  : No
Forced                                   : No

Text #11
ID                                       : 14
Format                                   : UTF-8
Codec ID                                 : S_TEXT/UTF8
Codec ID/Info                            : UTF-8 Plain Text
Duration                                 : 57 min 58 s
Bit rate                                 : 25 b/s
Frame rate                               : 0.102 FPS
Count of elements                        : 355
Stream size                              : 10.7 KiB (0%)
Language                                 : Danish
Default                                  : No
Forced                                   : No

Text #12
ID                                       : 15
Format                                   : UTF-8
Codec ID                                 : S_TEXT/UTF8
Codec ID/Info                            : UTF-8 Plain Text
Duration                                 : 57 min 58 s
Bit rate                                 : 26 b/s
Frame rate                               : 0.102 FPS
Count of elements                        : 355
Stream size                              : 11.2 KiB (0%)
Language                                 : German
Default                                  : No
Forced                                   : No

Text #13
ID                                       : 16
Format                                   : UTF-8
Codec ID                                 : S_TEXT/UTF8
Codec ID/Info                            : UTF-8 Plain Text
Duration                                 : 54 min 3 s
Bit rate                                 : 39 b/s
Frame rate                               : 0.141 FPS
Count of elements                        : 456
Stream size                              : 15.8 KiB (0%)
Language                                 : German
Default                                  : No
Forced                                   : No

Text #14
ID                                       : 17
Format                                   : UTF-8
Codec ID                                 : S_TEXT/UTF8
Codec ID/Info                            : UTF-8 Plain Text
Duration                                 : 58 min 0 s
Bit rate                                 : 48 b/s
Frame rate                               : 0.178 FPS
Count of elements                        : 619
Stream size                              : 20.7 KiB (0%)
Title                                    : SDH
Language                                 : German
Default                                  : No
Forced                                   : No

Text #15
ID                                       : 18
Format                                   : UTF-8
Codec ID                                 : S_TEXT/UTF8
Codec ID/Info                            : UTF-8 Plain Text
Duration                                 : 57 min 58 s
Bit rate                                 : 50 b/s
Frame rate                               : 0.124 FPS
Count of elements                        : 433
Stream size                              : 21.4 KiB (0%)
Language                                 : Greek
Default                                  : No
Forced                                   : No

Text #16
ID                                       : 19
Format                                   : UTF-8
Codec ID                                 : S_TEXT/UTF8
Codec ID/Info                            : UTF-8 Plain Text
Duration                                 : 57 min 58 s
Bit rate                                 : 27 b/s
Frame rate                               : 0.114 FPS
Count of elements                        : 396
Stream size                              : 11.5 KiB (0%)
Title                                    : Latin American
Language                                 : Spanish
Default                                  : No
Forced                                   : No

Text #17
ID                                       : 20
Format                                   : UTF-8
Codec ID                                 : S_TEXT/UTF8
Codec ID/Info                            : UTF-8 Plain Text
Duration                                 : 57 min 58 s
Bit rate                                 : 27 b/s
Frame rate                               : 0.118 FPS
Count of elements                        : 410
Stream size                              : 11.7 KiB (0%)
Title                                    : European
Language                                 : Spanish
Default                                  : No
Forced                                   : No

Text #18
ID                                       : 21
Format                                   : UTF-8
Codec ID                                 : S_TEXT/UTF8
Codec ID/Info                            : UTF-8 Plain Text
Duration                                 : 54 min 3 s
Bit rate                                 : 31 b/s
Frame rate                               : 0.144 FPS
Count of elements                        : 468
Stream size                              : 12.5 KiB (0%)
Title                                    : European
Language                                 : Spanish
Default                                  : No
Forced                                   : No

Text #19
ID                                       : 22
Format                                   : UTF-8
Codec ID                                 : S_TEXT/UTF8
Codec ID/Info                            : UTF-8 Plain Text
Duration                                 : 57 min 58 s
Bit rate                                 : 28 b/s
Frame rate                               : 0.122 FPS
Count of elements                        : 426
Stream size                              : 12.0 KiB (0%)
Language                                 : Finnish
Default                                  : No
Forced                                   : No

Text #20
ID                                       : 23
Format                                   : UTF-8
Codec ID                                 : S_TEXT/UTF8
Codec ID/Info                            : UTF-8 Plain Text
Duration                                 : 54 min 3 s
Bit rate                                 : 32 b/s
Frame rate                               : 0.136 FPS
Count of elements                        : 441
Stream size                              : 13.0 KiB (0%)
Language                                 : fil
Default                                  : No
Forced                                   : No

Text #21
ID                                       : 24
Format                                   : UTF-8
Codec ID                                 : S_TEXT/UTF8
Codec ID/Info                            : UTF-8 Plain Text
Duration                                 : 57 min 58 s
Bit rate                                 : 27 b/s
Frame rate                               : 0.116 FPS
Count of elements                        : 405
Stream size                              : 11.7 KiB (0%)
Language                                 : French
Default                                  : No
Forced                                   : No

Text #22
ID                                       : 25
Format                                   : UTF-8
Codec ID                                 : S_TEXT/UTF8
Codec ID/Info                            : UTF-8 Plain Text
Duration                                 : 57 min 58 s
Bit rate                                 : 49 b/s
Frame rate                               : 0.135 FPS
Count of elements                        : 471
Stream size                              : 21.2 KiB (0%)
Language                                 : Hebrew
Default                                  : No
Forced                                   : No

Text #23
ID                                       : 26
Format                                   : UTF-8
Codec ID                                 : S_TEXT/UTF8
Codec ID/Info                            : UTF-8 Plain Text
Duration                                 : 57 min 58 s
Bit rate                                 : 25 b/s
Frame rate                               : 0.128 FPS
Count of elements                        : 446
Stream size                              : 11.0 KiB (0%)
Language                                 : Croatian
Default                                  : No
Forced                                   : No

Text #24
ID                                       : 27
Format                                   : UTF-8
Codec ID                                 : S_TEXT/UTF8
Codec ID/Info                            : UTF-8 Plain Text
Duration                                 : 57 min 58 s
Bit rate                                 : 29 b/s
Frame rate                               : 0.133 FPS
Count of elements                        : 463
Stream size                              : 12.7 KiB (0%)
Language                                 : Hungarian
Default                                  : No
Forced                                   : No

Text #25
ID                                       : 28
Format                                   : UTF-8
Codec ID                                 : S_TEXT/UTF8
Codec ID/Info                            : UTF-8 Plain Text
Duration                                 : 57 min 58 s
Bit rate                                 : 29 b/s
Frame rate                               : 0.133 FPS
Count of elements                        : 463
Stream size                              : 12.4 KiB (0%)
Language                                 : Indonesian
Default                                  : No
Forced                                   : No

Text #26
ID                                       : 29
Format                                   : UTF-8
Codec ID                                 : S_TEXT/UTF8
Codec ID/Info                            : UTF-8 Plain Text
Duration                                 : 57 min 58 s
Bit rate                                 : 32 b/s
Frame rate                               : 0.125 FPS
Count of elements                        : 435
Stream size                              : 13.9 KiB (0%)
Language                                 : Japanese
Default                                  : No
Forced                                   : No

Text #27
ID                                       : 30
Format                                   : UTF-8
Codec ID                                 : S_TEXT/UTF8
Codec ID/Info                            : UTF-8 Plain Text
Duration                                 : 57 min 58 s
Bit rate                                 : 38 b/s
Frame rate                               : 0.134 FPS
Count of elements                        : 467
Stream size                              : 16.3 KiB (0%)
Language                                 : Korean
Default                                  : No
Forced                                   : No

Text #28
ID                                       : 31
Format                                   : UTF-8
Codec ID                                 : S_TEXT/UTF8
Codec ID/Info                            : UTF-8 Plain Text
Duration                                 : 57 min 58 s
Bit rate                                 : 29 b/s
Frame rate                               : 0.131 FPS
Count of elements                        : 454
Stream size                              : 12.3 KiB (0%)
Language                                 : Malay
Default                                  : No
Forced                                   : No

Text #29
ID                                       : 32
Format                                   : UTF-8
Codec ID                                 : S_TEXT/UTF8
Codec ID/Info                            : UTF-8 Plain Text
Duration                                 : 57 min 58 s
Bit rate                                 : 29 b/s
Frame rate                               : 0.124 FPS
Count of elements                        : 431
Stream size                              : 12.5 KiB (0%)
Language                                 : Norwegian Bokmal
Default                                  : No
Forced                                   : No

Text #30
ID                                       : 33
Format                                   : UTF-8
Codec ID                                 : S_TEXT/UTF8
Codec ID/Info                            : UTF-8 Plain Text
Duration                                 : 57 min 58 s
Bit rate                                 : 28 b/s
Frame rate                               : 0.123 FPS
Count of elements                        : 428
Stream size                              : 11.9 KiB (0%)
Language                                 : Dutch
Default                                  : No
Forced                                   : No

Text #31
ID                                       : 34
Format                                   : UTF-8
Codec ID                                 : S_TEXT/UTF8
Codec ID/Info                            : UTF-8 Plain Text
Duration                                 : 57 min 54 s
Bit rate                                 : 28 b/s
Frame rate                               : 0.125 FPS
Count of elements                        : 435
Stream size                              : 12.1 KiB (0%)
Language                                 : Polish
Default                                  : No
Forced                                   : No

Text #32
ID                                       : 35
Format                                   : UTF-8
Codec ID                                 : S_TEXT/UTF8
Codec ID/Info                            : UTF-8 Plain Text
Duration                                 : 57 min 58 s
Bit rate                                 : 28 b/s
Frame rate                               : 0.127 FPS
Count of elements                        : 443
Stream size                              : 12.0 KiB (0%)
Title                                    : Brazilian
Language                                 : Portuguese
Default                                  : No
Forced                                   : No

Text #33
ID                                       : 36
Format                                   : UTF-8
Codec ID                                 : S_TEXT/UTF8
Codec ID/Info                            : UTF-8 Plain Text
Duration                                 : 57 min 59 s
Bit rate                                 : 30 b/s
Frame rate                               : 0.131 FPS
Count of elements                        : 455
Stream size                              : 12.9 KiB (0%)
Title                                    : European
Language                                 : Portuguese
Default                                  : No
Forced                                   : No

Text #34
ID                                       : 37
Format                                   : UTF-8
Codec ID                                 : S_TEXT/UTF8
Codec ID/Info                            : UTF-8 Plain Text
Duration                                 : 54 min 3 s
Bit rate                                 : 34 b/s
Frame rate                               : 0.136 FPS
Count of elements                        : 440
Stream size                              : 13.8 KiB (0%)
Language                                 : Romanian
Default                                  : No
Forced                                   : No

Text #35
ID                                       : 38
Format                                   : UTF-8
Codec ID                                 : S_TEXT/UTF8
Codec ID/Info                            : UTF-8 Plain Text
Duration                                 : 57 min 57 s
Bit rate                                 : 45 b/s
Frame rate                               : 0.129 FPS
Count of elements                        : 449
Stream size                              : 19.5 KiB (0%)
Language                                 : Russian
Default                                  : No
Forced                                   : No

Text #36
ID                                       : 39
Format                                   : UTF-8
Codec ID                                 : S_TEXT/UTF8
Codec ID/Info                            : UTF-8 Plain Text
Duration                                 : 57 min 58 s
Bit rate                                 : 30 b/s
Frame rate                               : 0.113 FPS
Count of elements                        : 393
Stream size                              : 12.8 KiB (0%)
Language                                 : Swedish
Default                                  : No
Forced                                   : No

Text #37
ID                                       : 40
Format                                   : UTF-8
Codec ID                                 : S_TEXT/UTF8
Codec ID/Info                            : UTF-8 Plain Text
Duration                                 : 57 min 58 s
Bit rate                                 : 79 b/s
Frame rate                               : 0.136 FPS
Count of elements                        : 474
Stream size                              : 33.8 KiB (0%)
Language                                 : Thai
Default                                  : No
Forced                                   : No

Text #38
ID                                       : 41
Format                                   : UTF-8
Codec ID                                 : S_TEXT/UTF8
Codec ID/Info                            : UTF-8 Plain Text
Duration                                 : 57 min 58 s
Bit rate                                 : 28 b/s
Frame rate                               : 0.108 FPS
Count of elements                        : 377
Stream size                              : 12.2 KiB (0%)
Language                                 : Turkish
Default                                  : No
Forced                                   : No

Text #39
ID                                       : 42
Format                                   : UTF-8
Codec ID                                 : S_TEXT/UTF8
Codec ID/Info                            : UTF-8 Plain Text
Duration                                 : 57 min 58 s
Bit rate                                 : 48 b/s
Frame rate                               : 0.135 FPS
Count of elements                        : 470
Stream size                              : 20.5 KiB (0%)
Language                                 : Ukrainian
Default                                  : No
Forced                                   : No

Text #40
ID                                       : 43
Format                                   : UTF-8
Codec ID                                 : S_TEXT/UTF8
Codec ID/Info                            : UTF-8 Plain Text
Duration                                 : 57 min 58 s
Bit rate                                 : 40 b/s
Frame rate                               : 0.130 FPS
Count of elements                        : 452
Stream size                              : 17.1 KiB (0%)
Language                                 : Vietnamese
Default                                  : No
Forced                                   : No

Text #41
ID                                       : 44
Format                                   : UTF-8
Codec ID                                 : S_TEXT/UTF8
Codec ID/Info                            : UTF-8 Plain Text
Duration                                 : 57 min 58 s
Bit rate                                 : 35 b/s
Frame rate                               : 0.137 FPS
Count of elements                        : 475
Stream size                              : 15.0 KiB (0%)
Title                                    : Simplified
Language                                 : Chinese
Default                                  : No
Forced                                   : No

Text #42
ID                                       : 45
Format                                   : UTF-8
Codec ID                                 : S_TEXT/UTF8
Codec ID/Info                            : UTF-8 Plain Text
Duration                                 : 57 min 58 s
Bit rate                                 : 31 b/s
Frame rate                               : 0.135 FPS
Count of elements                        : 471
Stream size                              : 13.2 KiB (0%)
Title                                    : Traditional
Language                                 : Chinese
Default                                  : No
Forced                                   : No

Menu
00:00:00.000                             : enart 01
00:56:36.450                             : en:Credits




[center].:: TORRENT LINK ::.[/center]



[center].:: NOTE ::.[/center]

[center]ATTENZIONE RELEASE DOLBY VISION SINGLE LAYER CON POSSIBILITA' DI  FALLBACK IN HDR, PER RIPRODUZIONE DoVi NECESSARIA CONFIGURAZIONE HARDWARE SPECIFICA.
Release testata su  Android Plex Nvidia Shield Pro 2019.
[/center]

Info: Per scaricare devi usare un client come uTorrent o Transmission
AnnounceURL
udp://tracker.opentrackr.org:1337/announce
Hash 3d5e8ece5d2150e62d874fb18e6fe4da61bb9c27
Peers seeds: 0 , leech: 0
Size 38.37 GB
Completato 0x
Aggiunto 30.11.22 - 01:11:37
Uploader   ppb1
Votazione (Voti: 0)


Condividi questo bittorrent:


html/blog:


bbcode/forum:




Aggiungi Commento