* Dettagli Torrent   globale  | Commenti (0) 


- [2022] Black Adam [2160p.4K.x265.10bit.ITA.Ac3.5.1] (by.phadron) MIRCrew -


Download via torrent:
Categoria bittorrent BDRip
Descrizione





Screen: QUI
Info: QUI


Unique ID                                : 171329249719284344405554713154284455597 (0x80E4D03063E844D132F573D82D9086AD)
Complete name                            : [2022] Black Adam [2160p.4K.x265.10bit.ITA] (by.phadron) MIRCrew.mkv
Format                                   : Matroska
Format version                           : Version 4
File size                                : 10.7 GiB
Duration                                 : 2 h 4 min
Overall bit rate                         : 12.2 Mb/s
Movie name                               : Black Adam (2022)
Encoded date                             : UTC 2022-11-23 17:10:25
Writing application                      : mkvmerge v71.1.0 ('Fortitude&#39 64-bit
Writing library                          : libebml v1.4.4 + libmatroska v1.7.1
Cover                                    : Yes
Attachments                              : 022-black-adam_cover.jpg

Video
ID                                       : 1
Format                                   : HEVC
Format/Info                              : High Efficiency Video Coding
Format profile                           : Main [email protected]@High
Codec ID                                 : V_MPEGH/ISO/HEVC
Duration                                 : 2 h 4 min
Bit rate                                 : 11.8 Mb/s
Width                                    : 3 840 pixels
Height                                   : 1 606 pixels
Display aspect ratio                     : 2.40:1
Frame rate mode                          : Constant
Frame rate                               : 23.976 FPS
Color space                              : YUV
Chroma subsampling                       : 4:2:0
Bit depth                                : 10 bits
Bits/(Pixel*Frame)                       : 0.080
Stream size                              : 10.3 GiB (96%)
Language                                 : English
Default                                  : Yes
Forced                                   : No
Color range                              : Limited
Color primaries                          : BT.709
Transfer characteristics                 : BT.709
Matrix coefficients                      : BT.709

Audio
ID                                       : 2
Format                                   : AC-3
Format/Info                              : Audio Coding 3
Commercial name                          : Dolby Digital
Codec ID                                 : A_AC3
Duration                                 : 2 h 4 min
Bit rate mode                            : Constant
Bit rate                                 : 448 kb/s
Channel(s)                               : 6 channels
Channel layout                           : L R C LFE Ls Rs
Sampling rate                            : 48.0 kHz
Frame rate                               : 31.250 FPS (1536 SPF)
Compression mode                         : Lossy
Delay relative to video                  : 660 ms
Stream size                              : 400 MiB (4%)
Language                                 : Italian
Service kind                             : Complete Main
Default                                  : Yes
Forced                                   : No

Text #1
ID                                       : 3
Format                                   : UTF-8
Codec ID                                 : S_TEXT/UTF8
Codec ID/Info                            : UTF-8 Plain Text
Duration                                 : 1 h 44 min
Bit rate                                 : 2 b/s
Frame rate                               : 0.014 FPS
Count of elements                        : 85
Stream size                              : 2.10 KiB (0%)
Title                                    : Forzati
Language                                 : Italian
Default                                  : Yes
Forced                                   : Yes

Text #2
ID                                       : 4
Format                                   : UTF-8
Codec ID                                 : S_TEXT/UTF8
Codec ID/Info                            : UTF-8 Plain Text
Duration                                 : 1 h 56 min
Bit rate                                 : 57 b/s
Frame rate                               : 0.250 FPS
Count of elements                        : 1748
Stream size                              : 49.0 KiB (0%)
Language                                 : Italian
Default                                  : Yes
Forced                                   : No
Info: Per scaricare devi usare un client come uTorrent o Transmission
AnnounceURL
udp://tracker.torrent.eu.org:451/announce
Hash d00f1bf9fb85e1b6ce90baf6093f9e8a2a337e63
Peers seeds: 0 , leech: 0
Size 10.67 GB
Completato 0x
Aggiunto 23.11.22 - 18:11:37
Uploader   phadron
Votazione (Voti: 0)


Condividi questo bittorrent:


html/blog:


bbcode/forum:




Aggiungi Commento