* Dettagli Torrent   globale  | Commenti (0) 


- Don.t.Worry.Darling.2022.iTA.ENG.AC3.SUB.iTA.ENG.BluRay.HEVC.1080p.x265.jeddak-MIRCrew -


Download via torrent:
Categoria bittorrent BDRip
Descrizione





Don t Worry Darling


Titolo originale: Don t Worry Darling
Genere: Drammatico, Thriller
Anno: 2022
Regia: Olivia Wilde
Attori: Florence Pugh, Harry Styles, Olivia Wilde, Chris Pine, Gemma Chan, Nick Kroll, Douglas Smith, KiKi Layne, Timothy Simons, Kate Berlant, Asif Ali
Paese: USA
Durata: 123 min
Distribuzione: Warner Bros. Pictures Italia
Sceneggiatura: Katie Silberman, Carey Van Dyke, Shane Van Dyke
Fotografia: Matthew Libatique
Montaggio: Jennifer Lame, Andrew Leven
Produzione: New Line Productions, Vertigo Entertainment



Don t Worry Darling, film diretto da Olivia Wilde, è ambientato negli anni '50 e racconta la storia di Alice (Florence Pugh), una casalinga sposata con Jack (Harry Styles), che vive con il marito in una comunità sperimentale, isolata e utopica, conducendo un'esistenza idilliaca. In questa comunità idealizzata, che raccoglie famiglie felici, vige il concetto di ottimismo sociale, tipico di quel decennio, e portato avanti anche dallo stesso amministratore delegato Frank (Chris Pine), che gestisce ogni aspetto della vita in questo idilliaco luogo. Gli uomini passano le loro giornate nel quartier generale del Victory Project, un progetto top-secret dedicato allo "sviluppo di materiali innovativi". Le donne, compresa la compagna di Frank, Shelley (Gemma Chan), trascorrono il tempo a godersi la comunità con i suoi agi e lussi. Apparentemente la vita perfetta, dove ogni bisogno del residente viene prontamente soddisfatto dall'azienda e l'unica cosa chiesta in cambio è l'impegno lavorativo e la discrezione sul progetto in atto.
Quando Alice inizia a chiedersi cosa suo marito faccia alla Victory e a quale scopo, inizia sospettare che Jack possa avere segreti con lei. Ben presto la donna si renderà conto che sotto il velo perfetto dell'apparenza si nascondono cose terribili, che porteranno la sua splendida vita a disfarsi pezzo dopo pezzo. Ma è pronta a perdere tutto pur di far conoscere la verità?





















General
Unique ID                   : 183676698670919447671416306072554601141 (0x8A2ED86C8139086D8C71658CF3F07AB5)
Complete name               : Don.t.Worry.Darling.2022.iTA.ENG.AC3.SUB.iTA.ENG.BluRay.HEVC.1080p.x265.jeddak-MIRCrew.mkv
Format                      : Matroska
Format version              : Version 2
File size                   : 2.65 GiB
Duration                    : 2 h 2 min
Overall bit rate            : 3 092 kb/s
Movie name                  : Don.t.Worry.Darling.2022.iTA.ENG.AC3.SUB.iTA.ENG.BluRay.HEVC.1080p.x265.jeddak-MIRCrew
Encoded date                : UTC 2022-11-20 15:06:03
Writing application         : mkvmerge v5.6.0 ( 'Kenya Kane' ) built on May 27 2012 16:44:04
Writing library             : libebml v1.2.3 + libmatroska v1.3.0 / Lavf58.76.100

Video
ID                          : 1
Format                      : HEVC
Format/Info                 : High Efficiency Video Coding
Format profile              : [email protected]@Main
Codec ID                    : V_MPEGH/ISO/HEVC
Duration                    : 2 h 2 min
Bit rate                    : 2 135 kb/s
Width                       : 1 920 pixels
Height                      : 800 pixels
Display aspect ratio        : 2.40:1
Frame rate mode             : Constant
Frame rate                  : 23.976 (24000/1001) FPS
Color space                 : YUV
Chroma subsampling          : 4:2:0 (Type 0)
Bit depth                   : 8 bits
Bits/(Pixel*Frame)          : 0.058
Stream size                 : 1.83 GiB (69%)
Title                       : ...::: jeddak MIRCrew :::...
Writing library             : x265 3.5+1-f0c1022b6:[Linux][GCC 10.3.1][64 bit] 8bit+10bit+12bit
Encoding settings           : cpuid=1111039 / frame-threads=5 / wpp / no-pmode / no-pme / no-psnr / no-ssim / log-level=2 / input-csp=1 / input-res=1920x800 / interlace=0 / total-frames=0 / level-idc=40 / high-tier=1 / uhd-bd=0 / ref=3 / no-allow-non-conformance / no-repeat-headers / annexb / no-aud / no-hrd / info / hash=0 / no-temporal-layers / open-gop / min-keyint=24 / keyint=240 / gop-lookahead=0 / bframes=4 / b-adapt=2 / b-pyramid / bframe-bias=0 / rc-lookahead=20 / lookahead-slices=5 / scenecut=40 / hist-scenecut=0 / radl=0 / no-splice / no-intra-refresh / ctu=64 / min-cu-size=8 / no-rect / no-amp / max-tu-size=32 / tu-inter-depth=1 / tu-intra-depth=1 / limit-tu=0 / rdoq-level=0 / dynamic-rd=0.00 / no-ssim-rd / signhide / no-tskip / nr-intra=0 / nr-inter=0 / no-constrained-intra / strong-intra-smoothing / max-merge=3 / limit-refs=1 / no-limit-modes / me=1 / subme=2 / merange=57 / temporal-mvp / no-frame-dup / no-hme / weightp / no-weightb / no-analyze-src-pics / deblock=0:0 / sao / no-sao-non-deblock / rd=3 / selective-sao=4 / early-skip / rskip / no-fast-intra / no-tskip-fast / no-cu-lossless / b-intra / no-splitrd-skip / rdpenalty=0 / psy-rd=2.00 / psy-rdoq=0.00 / no-rd-refine / no-lossless / cbqpoffs=0 / crqpoffs=0 / rc=abr / bitrate=2100 / qcomp=0.60 / qpstep=4 / stats-write=0 / stats-read=0 / ipratio=1.40 / pbratio=1.30 / aq-mode=2 / aq-strength=1.00 / cutree / zone-count=0 / no-strict-cbr / qg-size=32 / no-rc-grain / qpmax=69 / qpmin=0 / no-const-vbv / sar=1 / overscan=0 / videoformat=5 / range=0 / colorprim=1 / transfer=1 / colormatrix=1 / chromaloc=1 / chromaloc-top=0 / chromaloc-bottom=0 / display-window=0 / cll=0,0 / min-luma=0 / max-luma=255 / log2-max-poc-lsb=8 / vui-timing-info / vui-hrd-info / slices=1 / no-opt-qp-pps / no-opt-ref-list-length-pps / no-multi-pass-opt-rps / scenecut-bias=0.05 / hist-threshold=0.03 / no-opt-cu-delta-qp / no-aq-motion / no-hdr10 / no-hdr10-opt / no-dhdr10-opt / no-idr-recovery-sei / analysis-reuse-level=0 / analysis-save-reuse-level=0 / analysis-load-reuse-level=0 / scale-factor=0 / refine-intra=0 / refine-inter=0 / refine-mv=1 / refine-ctu-distortion=0 / no-limit-sao / ctu-info=0 / no-lowpass-dct / refine-analysis-type=0 / copy-pic=1 / max-ausize-factor=1.0 / no-dynamic-refine / no-single-sei / no-hevc-aq / no-svt / no-field / qp-adaptation-range=1.00 / scenecut-aware-qp=0conformance-window-offsets / right=0 / bottom=0 / decoder-max-rate=0 / no-vbv-live-multi-pass
Default                     : Yes
Forced                      : No
Color range                 : Limited
Color primaries             : BT.709
Transfer characteristics    : BT.709
Matrix coefficients         : BT.709
Duration_Source             : General_Duration

Audio #1
ID                          : 2
Format                      : AC-3
Format/Info                 : Audio Coding 3
Commercial name             : Dolby Digital
Codec ID                    : A_AC3
Duration                    : 2 h 2 min
Bit rate mode               : Constant
Bit rate                    : 448 kb/s
Channel(s)                  : 6 channels
Channel layout              : L R C LFE Ls Rs
Sampling rate               : 48.0 kHz
Frame rate                  : 31.250 FPS (1536 SPF)
Compression mode            : Lossy
Delay relative to video     : -5 ms
Stream size                 : 393 MiB (14%)
Title                       : iTA AC3 5.1
Language                    : Italian
Service kind                : Complete Main
Default                     : Yes
Forced                      : No

Audio #2
ID                          : 3
Format                      : AC-3
Format/Info                 : Audio Coding 3
Commercial name             : Dolby Digital
Codec ID                    : A_AC3
Duration                    : 2 h 2 min
Bit rate mode               : Constant
Bit rate                    : 448 kb/s
Channel(s)                  : 6 channels
Channel layout              : L R C LFE Ls Rs
Sampling rate               : 48.0 kHz
Frame rate                  : 31.250 FPS (1536 SPF)
Compression mode            : Lossy
Delay relative to video     : -5 ms
Stream size                 : 393 MiB (14%)
Title                       : ENG AC3 5.1
Language                    : English
Service kind                : Complete Main
Default                     : No
Forced                      : No

Text #1
ID                          : 4
Format                      : UTF-8
Codec ID                    : S_TEXT/UTF8
Codec ID/Info               : UTF-8 Plain Text
Title                       : iTA FORCED - SRT
Language                    : Italian
Default                     : No
Forced                      : Yes

Text #2
ID                          : 5
Format                      : PGS
Codec ID                    : S_HDMV/PGS
Codec ID/Info               : Picture based subtitle format used on BDs/HD-DVDs
Duration                    : 53 min 55 s
Title                       : iTA FORCED - PGS
Language                    : Italian
Default                     : Yes
Forced                      : Yes

Text #3
ID                          : 6
Format                      : PGS
Codec ID                    : S_HDMV/PGS
Codec ID/Info               : Picture based subtitle format used on BDs/HD-DVDs
Duration                    : 1 h 58 min
Title                       : iTA NON UDENTI - PGS
Language                    : Italian
Default                     : No
Forced                      : No

Text #4
ID                          : 7
Format                      : PGS
Codec ID                    : S_HDMV/PGS
Codec ID/Info               : Picture based subtitle format used on BDs/HD-DVDs
Duration                    : 1 h 58 min
Title                       : ENG NON UDENTI - PGS
Language                    : English
Default                     : No
Forced                      : No

Menu
00:00:00.000                : :Capitolo 01
00:09:55.678                : :Capitolo 02
00:18:01.747                : :Capitolo 03
00:28:00.220                : :Capitolo 04
00:35:26.166                : :Capitolo 05
00:45:20.801                : :Capitolo 06
00:55:13.811                : :Capitolo 07
01:04:21.024                : :Capitolo 08
01:12:40.857                : :Capitolo 09
01:21:08.405                : :Capitolo 10
01:30:43.772                : :Capitolo 11
01:39:06.399                : :Capitolo 12
01:48:34.591                : :Capitolo 13
01:55:42.727                : :Capitolo 14
Info: Per scaricare devi usare un client come uTorrent o Transmission
AnnounceURL
udp://tracker.torrent.eu.org:451/announce
Hash 4333d01cb81019eff650071c80fcbe0449643cfa
Peers seeds: 0 , leech: 0
Size 2.65 GB
Completato 0x
Aggiunto 20.11.22 - 17:11:52
Uploader   jeddak1
Votazione (Voti: 0)


Condividi questo bittorrent:


html/blog:


bbcode/forum:




Aggiungi Commento