* Dettagli Torrent   globale  | Commenti (0) 


- The.Counselor.Il.Procuratore.2013.iTA.ENG.AC3.SUB.iTA.ENG.BluRay.HEVC.1080p.x265.jeddak-MIRCrew -


Download via torrent:
Categoria bittorrent BDRip
Descrizione





The Counselor - Il Procuratore


Titolo originale: The Counselor
Genere: Poliziesco, Drammatico, Thriller
Anno: 2013
Regia: Ridley Scott
Attori: Michael Fassbender, Brad Pitt, Cameron Diaz, Penélope Cruz, Javier Bardem, Dean Norris, Natalie Dormer, Rosie Perez, Goran Visnjic, Sam Spruell, Rubén Blades, Bruno Ganz
Paese: USA
Durata: 117 min
Distribuzione: 20th Century Fox
Sceneggiatura: Cormac McCarthy
Fotografia: Dariusz Wolski
Montaggio: Pietro Scalia
Musiche: Daniel Pemberton
Produzione: Chockstone Pictures, Nick Wechsler Productions



The Counselor - Il Procuratore è un film del 2013 diretto da Ridley Scott.
Un avvocato di successo (Michael Fassbender), dopo aver chiesto alla sua fidanzata Laura (Penelope Cruz) di sposarlo, spinto dalle necessità economiche tipiche di un matrimonio, accetta la proposta di Reiner (Javier Bardem), un vecchio cliente in affari con la malavita messicana impegnata nel traffico di droga.
Il compito dell'avvocato, un po' troppo spavaldo e un po' troppo sicuro di uscirne indenne, è quello di recuperare un carico di cocaina dal valore di 20 milioni di dollari al confine con il Messico, anche attraverso l'aiuto di Westray (Brad Pitt), un tipo non certo raccomandabile che, tuttavia, prova a mettere in guardia l'avvocato sulla pericolosità e i rischi dell'operazione cui sta andando incontro, e di Malkina (Cameron Diaz), fidanzata di Reiner.
Così l'operazione avrà inizio, il povero avvocato finirà col rimanere spiazzato di fronte a un gruppo di malavitosi per nulla spaventati dall'eventualità della morte e sarà costretto a entrare in un vortice inarrestabile di violenza e pericolo, senza esserne in realtà completamente consapevole.
Sarà proprio rendendosi conto che la sua vita è fin troppo diversa da quella della malavita locale, che l'avvocato dovrà affrontare le conseguenze di un’operazione di traffico di droga mal riuscita.





















General
Unique ID                   : 234643048795367470204771676075988714025 (0xB0869B7E064606C6AAB5DC35DB698229)
Complete name               : The.Counselor.Il.Procuratore.2013.iTA.ENG.AC3.SUB.iTA.ENG.BluRay.HEVC.1080p.x265.jeddak-MIRCrew.mkv
Format                      : Matroska
Format version              : Version 2
File size                   : 2.49 GiB
Duration                    : 1 h 57 min
Overall bit rate            : 3 037 kb/s
Movie name                  : The.Counselor.Il.Procuratore.2013.iTA.ENG.AC3.SUB.iTA.ENG.BluRay.HEVC.1080p.x265.jeddak-MIRCrew
Encoded date                : UTC 2022-11-19 15:19:11
Writing application         : mkvmerge v5.6.0 ( 'Kenya Kane' ) built on May 27 2012 16:44:04
Writing library             : libebml v1.2.3 + libmatroska v1.3.0 / Lavf58.76.100

Video
ID                          : 1
Format                      : HEVC
Format/Info                 : High Efficiency Video Coding
Format profile              : [email protected]@Main
Codec ID                    : V_MPEGH/ISO/HEVC
Duration                    : 1 h 57 min
Bit rate                    : 2 080 kb/s
Width                       : 1 920 pixels
Height                      : 800 pixels
Display aspect ratio        : 2.40:1
Frame rate mode             : Constant
Frame rate                  : 23.976 (24000/1001) FPS
Color space                 : YUV
Chroma subsampling          : 4:2:0 (Type 0)
Bit depth                   : 8 bits
Bits/(Pixel*Frame)          : 0.056
Stream size                 : 1.70 GiB (69%)
Title                       : ...::: jeddak MIRCrew :::...
Writing library             : x265 3.5+1-f0c1022b6:[Linux][GCC 10.3.1][64 bit] 8bit+10bit+12bit
Encoding settings           : cpuid=1111039 / frame-threads=5 / wpp / no-pmode / no-pme / no-psnr / no-ssim / log-level=2 / input-csp=1 / input-res=1920x800 / interlace=0 / total-frames=0 / level-idc=40 / high-tier=1 / uhd-bd=0 / ref=3 / no-allow-non-conformance / no-repeat-headers / annexb / no-aud / no-hrd / info / hash=0 / no-temporal-layers / open-gop / min-keyint=24 / keyint=240 / gop-lookahead=0 / bframes=4 / b-adapt=2 / b-pyramid / bframe-bias=0 / rc-lookahead=20 / lookahead-slices=5 / scenecut=40 / hist-scenecut=0 / radl=0 / no-splice / no-intra-refresh / ctu=64 / min-cu-size=8 / no-rect / no-amp / max-tu-size=32 / tu-inter-depth=1 / tu-intra-depth=1 / limit-tu=0 / rdoq-level=0 / dynamic-rd=0.00 / no-ssim-rd / signhide / no-tskip / nr-intra=0 / nr-inter=0 / no-constrained-intra / strong-intra-smoothing / max-merge=3 / limit-refs=1 / no-limit-modes / me=1 / subme=2 / merange=57 / temporal-mvp / no-frame-dup / no-hme / weightp / no-weightb / no-analyze-src-pics / deblock=0:0 / sao / no-sao-non-deblock / rd=3 / selective-sao=4 / early-skip / rskip / no-fast-intra / no-tskip-fast / no-cu-lossless / b-intra / no-splitrd-skip / rdpenalty=0 / psy-rd=2.00 / psy-rdoq=0.00 / no-rd-refine / no-lossless / cbqpoffs=0 / crqpoffs=0 / rc=abr / bitrate=2100 / qcomp=0.60 / qpstep=4 / stats-write=0 / stats-read=0 / ipratio=1.40 / pbratio=1.30 / aq-mode=2 / aq-strength=1.00 / cutree / zone-count=0 / no-strict-cbr / qg-size=32 / no-rc-grain / qpmax=69 / qpmin=0 / no-const-vbv / sar=1 / overscan=0 / videoformat=5 / range=0 / colorprim=1 / transfer=1 / colormatrix=1 / chromaloc=1 / chromaloc-top=0 / chromaloc-bottom=0 / display-window=0 / cll=0,0 / min-luma=0 / max-luma=255 / log2-max-poc-lsb=8 / vui-timing-info / vui-hrd-info / slices=1 / no-opt-qp-pps / no-opt-ref-list-length-pps / no-multi-pass-opt-rps / scenecut-bias=0.05 / hist-threshold=0.03 / no-opt-cu-delta-qp / no-aq-motion / no-hdr10 / no-hdr10-opt / no-dhdr10-opt / no-idr-recovery-sei / analysis-reuse-level=0 / analysis-save-reuse-level=0 / analysis-load-reuse-level=0 / scale-factor=0 / refine-intra=0 / refine-inter=0 / refine-mv=1 / refine-ctu-distortion=0 / no-limit-sao / ctu-info=0 / no-lowpass-dct / refine-analysis-type=0 / copy-pic=1 / max-ausize-factor=1.0 / no-dynamic-refine / no-single-sei / no-hevc-aq / no-svt / no-field / qp-adaptation-range=1.00 / scenecut-aware-qp=0conformance-window-offsets / right=0 / bottom=0 / decoder-max-rate=0 / no-vbv-live-multi-pass
Default                     : Yes
Forced                      : No
Color range                 : Limited
Color primaries             : BT.709
Transfer characteristics    : BT.709
Matrix coefficients         : BT.709
Duration_Source             : General_Duration

Audio #1
ID                          : 2
Format                      : AC-3
Format/Info                 : Audio Coding 3
Commercial name             : Dolby Digital
Codec ID                    : A_AC3
Duration                    : 1 h 57 min
Bit rate mode               : Constant
Bit rate                    : 448 kb/s
Channel(s)                  : 6 channels
Channel layout              : L R C LFE Ls Rs
Sampling rate               : 48.0 kHz
Frame rate                  : 31.250 FPS (1536 SPF)
Compression mode            : Lossy
Delay relative to video     : -5 ms
Stream size                 : 376 MiB (15%)
Title                       : iTA AC3 5.1
Language                    : Italian
Service kind                : Complete Main
Default                     : Yes
Forced                      : No

Audio #2
ID                          : 3
Format                      : AC-3
Format/Info                 : Audio Coding 3
Commercial name             : Dolby Digital
Codec ID                    : A_AC3
Duration                    : 1 h 57 min
Bit rate mode               : Constant
Bit rate                    : 448 kb/s
Channel(s)                  : 6 channels
Channel layout              : L R C LFE Ls Rs
Sampling rate               : 48.0 kHz
Frame rate                  : 31.250 FPS (1536 SPF)
Compression mode            : Lossy
Delay relative to video     : -5 ms
Stream size                 : 376 MiB (15%)
Title                       : ENG AC3 5.1
Language                    : English
Service kind                : Complete Main
Default                     : No
Forced                      : No

Text #1
ID                          : 4
Format                      : UTF-8
Codec ID                    : S_TEXT/UTF8
Codec ID/Info               : UTF-8 Plain Text
Title                       : iTA FORCED - SRT
Language                    : Italian
Default                     : No
Forced                      : Yes

Text #2
ID                          : 5
Format                      : UTF-8
Codec ID                    : S_TEXT/UTF8
Codec ID/Info               : UTF-8 Plain Text
Title                       : ENG FORCED - SRT
Language                    : English
Default                     : No
Forced                      : Yes

Text #3
ID                          : 6
Format                      : PGS
Codec ID                    : S_HDMV/PGS
Codec ID/Info               : Picture based subtitle format used on BDs/HD-DVDs
Duration                    : 1 h 57 min
Title                       : iTA FORCED - PGS
Language                    : Italian
Default                     : Yes
Forced                      : Yes

Text #4
ID                          : 7
Format                      : PGS
Codec ID                    : S_HDMV/PGS
Codec ID/Info               : Picture based subtitle format used on BDs/HD-DVDs
Duration                    : 8 min 12 s
Title                       : ENG FORCED - PGS
Language                    : English
Default                     : No
Forced                      : Yes

Text #5
ID                          : 8
Format                      : PGS
Codec ID                    : S_HDMV/PGS
Codec ID/Info               : Picture based subtitle format used on BDs/HD-DVDs
Duration                    : 1 h 57 min
Title                       : iTA REGULAR - PGS
Language                    : Italian
Default                     : No
Forced                      : No

Text #6
ID                          : 9
Format                      : PGS
Codec ID                    : S_HDMV/PGS
Codec ID/Info               : Picture based subtitle format used on BDs/HD-DVDs
Duration                    : 1 h 53 min
Title                       : ENG NON UDENTI - PGS
Language                    : English
Default                     : No
Forced                      : No

Menu
00:00:00.000                : :Capitolo 01
00:04:44.701                : :Capitolo 02
00:07:54.099                : :Capitolo 03
00:09:49.631                : :Capitolo 04
00:13:45.575                : :Capitolo 05
00:20:49.874                : :Capitolo 06
00:23:53.140                : :Capitolo 07
00:26:31.757                : :Capitolo 08
00:34:09.923                : :Capitolo 09
00:39:30.702                : :Capitolo 10
00:45:38.444                : :Capitolo 11
00:48:20.815                : :Capitolo 12
00:54:04.199                : :Capitolo 13
00:58:46.314                : :Capitolo 14
01:00:29.126                : :Capitolo 15
01:08:26.394                : :Capitolo 16
01:12:55.204                : :Capitolo 17
01:17:10.876                : :Capitolo 18
01:20:23.777                : :Capitolo 19
01:23:28.837                : :Capitolo 20
01:25:56.109                : :Capitolo 21
01:30:28.632                : :Capitolo 22
01:33:16.174                : :Capitolo 23
01:38:24.315                : :Capitolo 24
01:43:28.619                : :Capitolo 25
01:47:40.704                : :Capitolo 26
01:49:45.871                : :Capitolo 27
01:53:11.660                : :Capitolo 28
Info: Per scaricare devi usare un client come uTorrent o Transmission
AnnounceURL
udp://tracker.torrent.eu.org:451/announce
Hash 04017401eb674c7c4d3b9685f471beb06daf43b0
Peers seeds: 0 , leech: 0
Size 2.49 GB
Completato 0x
Aggiunto 19.11.22 - 17:11:56
Uploader   jeddak1
Votazione (Voti: 0)


Condividi questo bittorrent:


html/blog:


bbcode/forum:




Aggiungi Commento