* Dettagli Torrent   globale  | Commenti (0) 


- Lamb.2021.iTA.iCE.AC3.SUB.iTA.ENG.HEVC.BluRay.1080p.x265.jeddak-MIRCrew -


Download via torrent:
Categoria bittorrent BDRip
Descrizione





Lamb


Titolo originale: Dýrið
Titolo internazionale: Lamb
Genere: Drammatico, Fantastico, Horror
Anno: 2021
Regia: Vladimir Jóhannsson
Attori: Noomi Rapace, Hilmir Snaer Gudnason, Björn Hlynur Haraldsson, Ingvar Eggert Sigurdsson, Ester Bibi, Arnþruður Dögg Sigurðardóttir, Theodór Ingi Ólafsson
Paese: Islanda, Svezia, Polonia
Durata: 106 min
Distribuzione: Wanted Cinema
Sceneggiatura: Vladimir Jóhannsson
Fotografia: Eli Arenson
Montaggio: Agnieszka Glinska
Musiche: Thorarinn Gudnason
Produzione: Black Spark Film & TV, Go to Sheep, Madants



Lamb, film diretto da Valdimar Jóhannsson, racconta la storia di una coppia, formata da María (Noomi Rapace) e Ingvar (Hilmir Snaer Gudnason), che vivono in una remota fattoria immersa nella fredda natura islandese, dove accudiscono il loro gregge e lavorano la terra. I due hanno dovuto affrontare un'esperienza terribile: la nascita di una figlia morta. Un trauma che ha lasciato sul volto di María una perenne espressione triste e ha reso Ingvar ancora più taciturno. Il loro unico conforto è il lavoro, che li impegna così tanto da tenere le loro menti occupate.
Un giorno i due rinvengono una neonata nella loro tenuta e non sanno come mai si trovi lì da sola, ma soprattutto perché il suo aspetto sia a metà tra quello di un essere umano e quello di un ovino. Nonostante le sembianze, Maria e Ingvar - desiderosi di avere un figlio e allettati dalla prospettiva di una vita familiare - decidono di tenere la piccola con loro. Non sanno, però, che il loro momento di gioia è destinato a finire e li porterà alla completa distruzione...





















General
Unique ID                   : 204008076269286368456986312324827245788 (0x997A86BB7DB1164EA8033E5C450AECDC)
Complete name               : Lamb.2021.iTA.iCE.AC3.SUB.iTA.ENG.HEVC.BluRay.1080p.x265.jeddak-MIRCrew.mkv
Format                      : Matroska
Format version              : Version 2
File size                   : 2.18 GiB
Duration                    : 1 h 46 min
Overall bit rate            : 2 924 kb/s
Movie name                  : Lamb.2021.iTA.iCE.AC3.SUB.iTA.ENG.HEVC.BluRay.1080p.x265.jeddak-MIRCrew
Encoded date                : UTC 2022-09-23 07:08:01
Writing application         : mkvmerge v5.6.0 ( 'Kenya Kane' ) built on May 27 2012 16:44:04
Writing library             : libebml v1.2.3 + libmatroska v1.3.0 / Lavf58.76.100

Video
ID                          : 1
Format                      : HEVC
Format/Info                 : High Efficiency Video Coding
Format profile              : [email protected]@Main
Codec ID                    : V_MPEGH/ISO/HEVC
Duration                    : 1 h 46 min
Bit rate                    : 2 034 kb/s
Width                       : 1 920 pixels
Height                      : 800 pixels
Display aspect ratio        : 2.40:1
Frame rate mode             : Constant
Frame rate                  : 24.000 FPS
Color space                 : YUV
Chroma subsampling          : 4:2:0 (Type 0)
Bit depth                   : 8 bits
Bits/(Pixel*Frame)          : 0.055
Stream size                 : 1.51 GiB (70%)
Title                       : ...::: jeddak MIRCrew :::...
Writing library             : x265 3.5+1-f0c1022b6:[Linux][GCC 10.3.1][64 bit] 8bit+10bit+12bit
Encoding settings           : cpuid=1111039 / frame-threads=5 / wpp / no-pmode / no-pme / no-psnr / no-ssim / log-level=2 / input-csp=1 / input-res=1920x800 / interlace=0 / total-frames=0 / level-idc=40 / high-tier=1 / uhd-bd=0 / ref=3 / no-allow-non-conformance / no-repeat-headers / annexb / no-aud / no-hrd / info / hash=0 / no-temporal-layers / open-gop / min-keyint=24 / keyint=240 / gop-lookahead=0 / bframes=4 / b-adapt=2 / b-pyramid / bframe-bias=0 / rc-lookahead=20 / lookahead-slices=5 / scenecut=40 / hist-scenecut=0 / radl=0 / no-splice / no-intra-refresh / ctu=64 / min-cu-size=8 / no-rect / no-amp / max-tu-size=32 / tu-inter-depth=1 / tu-intra-depth=1 / limit-tu=0 / rdoq-level=0 / dynamic-rd=0.00 / no-ssim-rd / signhide / no-tskip / nr-intra=0 / nr-inter=0 / no-constrained-intra / strong-intra-smoothing / max-merge=3 / limit-refs=1 / no-limit-modes / me=1 / subme=2 / merange=57 / temporal-mvp / no-frame-dup / no-hme / weightp / no-weightb / no-analyze-src-pics / deblock=0:0 / sao / no-sao-non-deblock / rd=3 / selective-sao=4 / early-skip / rskip / no-fast-intra / no-tskip-fast / no-cu-lossless / b-intra / no-splitrd-skip / rdpenalty=0 / psy-rd=2.00 / psy-rdoq=0.00 / no-rd-refine / no-lossless / cbqpoffs=0 / crqpoffs=0 / rc=abr / bitrate=2100 / qcomp=0.60 / qpstep=4 / stats-write=0 / stats-read=0 / ipratio=1.40 / pbratio=1.30 / aq-mode=2 / aq-strength=1.00 / cutree / zone-count=0 / no-strict-cbr / qg-size=32 / no-rc-grain / qpmax=69 / qpmin=0 / no-const-vbv / sar=1 / overscan=0 / videoformat=5 / range=0 / colorprim=1 / transfer=1 / colormatrix=1 / chromaloc=1 / chromaloc-top=0 / chromaloc-bottom=0 / display-window=0 / cll=0,0 / min-luma=0 / max-luma=255 / log2-max-poc-lsb=8 / vui-timing-info / vui-hrd-info / slices=1 / no-opt-qp-pps / no-opt-ref-list-length-pps / no-multi-pass-opt-rps / scenecut-bias=0.05 / hist-threshold=0.03 / no-opt-cu-delta-qp / no-aq-motion / no-hdr10 / no-hdr10-opt / no-dhdr10-opt / no-idr-recovery-sei / analysis-reuse-level=0 / analysis-save-reuse-level=0 / analysis-load-reuse-level=0 / scale-factor=0 / refine-intra=0 / refine-inter=0 / refine-mv=1 / refine-ctu-distortion=0 / no-limit-sao / ctu-info=0 / no-lowpass-dct / refine-analysis-type=0 / copy-pic=1 / max-ausize-factor=1.0 / no-dynamic-refine / no-single-sei / no-hevc-aq / no-svt / no-field / qp-adaptation-range=1.00 / scenecut-aware-qp=0conformance-window-offsets / right=0 / bottom=0 / decoder-max-rate=0 / no-vbv-live-multi-pass
Default                     : Yes
Forced                      : No
Color range                 : Limited
Color primaries             : BT.709
Transfer characteristics    : BT.709
Matrix coefficients         : BT.709
Duration_Source             : General_Duration

Audio #1
ID                          : 2
Format                      : AC-3
Format/Info                 : Audio Coding 3
Commercial name             : Dolby Digital
Codec ID                    : A_AC3
Duration                    : 1 h 46 min
Bit rate mode               : Constant
Bit rate                    : 384 kb/s
Channel(s)                  : 6 channels
Channel layout              : L R C LFE Ls Rs
Sampling rate               : 48.0 kHz
Frame rate                  : 31.250 FPS (1536 SPF)
Compression mode            : Lossy
Delay relative to video     : -5 ms
Stream size                 : 293 MiB (13%)
Title                       : iTA AC3 5.1
Language                    : Italian
Service kind                : Complete Main
Default                     : Yes
Forced                      : No
Duration_Source             : General_Duration

Audio #2
ID                          : 3
Format                      : AC-3
Format/Info                 : Audio Coding 3
Commercial name             : Dolby Digital
Codec ID                    : A_AC3
Duration                    : 1 h 46 min
Bit rate mode               : Constant
Bit rate                    : 448 kb/s
Channel(s)                  : 6 channels
Channel layout              : L R C LFE Ls Rs
Sampling rate               : 48.0 kHz
Frame rate                  : 31.250 FPS (1536 SPF)
Compression mode            : Lossy
Delay relative to video     : -5 ms
Stream size                 : 342 MiB (15%)
Title                       : iCE AC3 5.1
Language                    : Icelandic
Service kind                : Complete Main
Default                     : No
Forced                      : No

Text #1
ID                          : 4
Format                      : UTF-8
Codec ID                    : S_TEXT/UTF8
Codec ID/Info               : UTF-8 Plain Text
Title                       : iTA FORCED - SRT
Language                    : Italian
Default                     : Yes
Forced                      : Yes

Text #2
ID                          : 5
Format                      : UTF-8
Codec ID                    : S_TEXT/UTF8
Codec ID/Info               : UTF-8 Plain Text
Title                       : iTA REGULAR - SRT
Language                    : Italian
Default                     : No
Forced                      : No

Text #3
ID                          : 6
Format                      : PGS
Codec ID                    : S_HDMV/PGS
Codec ID/Info               : Picture based subtitle format used on BDs/HD-DVDs
Duration                    : 1 h 46 min
Title                       : ENG NON UDENTI - PGS
Language                    : English
Default                     : No
Forced                      : No

Menu
00:00:00.000                : :Capitolo 01
00:05:49.167                : :Capitolo 02
00:16:40.625                : :Capitolo 03
00:27:07.083                : :Capitolo 04
00:40:12.292                : :Capitolo 05
00:50:56.250                : :Capitolo 06
01:05:15.417                : :Capitolo 07
01:14:19.333                : :Capitolo 08
01:25:16.125                : :Capitolo 09
01:33:43.250                : :Capitolo 10
01:40:59.958                : :Capitolo 11
Info: Per scaricare devi usare un client come uTorrent o Transmission
AnnounceURL
udp://tracker.torrent.eu.org:451/announce
Hash 90e227bf7599acf1ce10a4daac10fb5bcb9f3463
Peers seeds: 0 , leech: 0
Size 2.18 GB
Completato 0x
Aggiunto 23.09.22 - 10:09:04
Uploader   jeddak1
Votazione (Voti: 0)


Condividi questo bittorrent:


html/blog:


bbcode/forum:




Aggiungi Commento