* Dettagli Torrent   globale  | Commenti (0) 


- Ray donovan the Movie (2022) 1080p h264 Ac3 5.1 Ita Eng Sub Ita Eng-MIRCrew -


Download via torrent:
Categoria bittorrent BDRip
Descrizione
Ray donovan the Movie (2022) 1080p h264 Ac3 5.1 Ita Eng Sub Ita Eng-MIRCrew


NO FOUND ONLY ORIGINAL RELEASE


My release is always in double track audio italian and Original audio
for select it use VLC or dvd player home
not use wmp

Ray donovan the Movie (2022)

Quality MIRCrew on HD 1080p da 2,38 gb




[url=][/url]

 

Titolo originale: Ray Donovan: The Movie
Genere: Drammatico
Anno: 2022
Regia: David Hollander
Paese: USA
Durata: 100 min



Liev Schreiber, Kerris Dorsey, Jon Voight, Kerry Condon, Eddie Marsan, Dash Mihok, David Patrick Kelly, AJ Michalka, Sheryl Lee Ralph, Pooch Hall, Chris Petrovski, Danny Deferrari, Chris Gray



Quando vengono alla luce gli eventi che hanno reso Ray Donovan quel che è oggi, ciò che resta della famiglia Donovan finirà per tornare a Boston, al punto di partenza, per affrontare il passato.



A showdown decades in the making brings the Donovan family legacy full circle as they find themselves drawn back to Boston. Struggling to overcome their violent upbringing, their fierce love for each other keeps them in the fight.

 











[spoiler]
General

Complete name                            : Ray donovan the Movie (2022) 1080p h264 Ac3 5.1 Ita Eng Sub Ita Eng-MIRCrew.mkv
Format                                   : Matroska
Format version                           : Version 2
File size                                : 2.38 GiB
Duration                                 : 1h 39mn
Overall bit rate                         : 3 413 Kbps
Movie name                               : MIRCrew
Encoded date                             : UTC 2022-09-22T17:36:04Z
Writing application                      : mkvmerge v5.8.0 ('No Sleep / Pillow&#39 built on Sep  2 2012 15:37:04
Writing library                          : Lavf55.12.0

Video
ID                                       : 1
Format                                   : AVC
Format/Info                              : Advanced Video Codec
Format profile                           : [email protected]
Format settings, CABAC                   : Yes
Format settings, ReFrames                : 4 frames
Codec ID                                 : V_MPEG4/ISO/AVC
Duration                                 : 1h 39mn
Bit rate                                 : 2 600 Kbps
Width                                    : 1 920 pixels
Height                                   : 960 pixels
Display aspect ratio                     : 2.000
Frame rate mode                          : Variable
Frame rate                               : 23.976 fps
Color space                              : YUV
Chroma subsampling                       : 4:2:0
Bit depth                                : 8 bits
Scan type                                : Progressive
Bits/(Pixel*Frame)                       : 0.059
Stream size                              : 1.75 GiB (74%)
Title                                    : MIRCrew
Writing library                          : x264 core 142 r2479 dd79a61
Encoding settings                        : cabac=1 / ref=1 / deblock=1:0:0
Language                                 : Italian
Default                                  : Yes
Forced                                   : No
Color primaries                          : BT.709-5, BT.1361, IEC 61966-2-4, SMPTE RP177
Transfer characteristics                 : BT.709-5, BT.1361
Matrix coefficients                      : BT.709-5, BT.1361, IEC 61966-2-4 709, SMPTE RP177

Audio #1
ID                                       : 2
Format                                   : AC-3
Format/Info                              : Audio Coding 3
Mode extension                           : CM (complete main)
Codec ID                                 : A_AC3
Duration                                 : 1h 39mn
Bit rate mode                            : Constant
Bit rate                                 : 448 Kbps
Channel(s)                               : 2 channels
Channel positions                        : Front: L R
Sampling rate                            : 48.0 KHz
Bit depth                                : 16 bits
Compression mode                         : Lossy
Delay relative to video                  : -5ms
Stream size                              : 320 MiB (13%)
Title                                    : Ita Ac3 5.1
Language                                 : Italian
Default                                  : Yes
Forced                                   : No

Audio #2
ID                                       : 3
Format                                   : AC-3
Format/Info                              : Audio Coding 3
Mode extension                           : CM (complete main)
Codec ID                                 : A_AC3
Duration                                 : 1h 39mn
Bit rate mode                            : Constant
Bit rate                                 : 384 Kbps
Channel(s)                               : 6 channels
Channel positions                        : Front: L C R, Side: L R, LFE
Sampling rate                            : 48.0 KHz
Bit depth                                : 16 bits
Compression mode                         : Lossy
Delay relative to video                  : -5ms
Stream size                              : 274 MiB (11%)
Title                                    : Eng Ac3 5.1
Language                                 : English
Default                                  : No
Forced                                   : No

Text #1
ID                                       : 4
Format                                   : ASS
Codec ID                                 : S_TEXT/ASS
Codec ID/Info                            : Advanced Sub Station Alpha
Compression mode                         : Lossless
Title                                    : Ita
Language                                 : Italian
Default                                  : No
Forced                                   : No

Text #2
ID                                       : 5
Format                                   : ASS
Codec ID                                 : S_TEXT/ASS
Codec ID/Info                            : Advanced Sub Station Alpha
Compression mode                         : Lossless
Title                                    : Eng
Language                                 : English
Default                                  : No
Forced                                   : No

Menu
00:00:00.000                             : :Chapter 1
00:09:56.637                             : :Chapter 2
00:20:01.658                             : :Chapter 3
00:30:02.384                             : :Chapter 4
00:40:02.316                             : :Chapter 5
00:50:03.792                             : :Chapter 6
01:00:04.475                             : :Chapter 7
01:10:05.701                             : :Chapter 8
01:20:04.716                             : :Chapter 9
01:30:05.858                             : :Chapter 10
01:37:43.732                             : :Chapter 11


[/spoiler]






Info: Per scaricare devi usare un client come uTorrent o Transmission
AnnounceURL
udp://tracker.torrent.eu.org:451/announce
Hash c64ad085dc5d0ce2115930a99228637be49f201b
Peers seeds: 0 , leech: 0
Size 2.38 GB
Completato 0x
Aggiunto 23.09.22 - 09:09:18
Uploader   robbyrs
Votazione (Voti: 0)


Condividi questo bittorrent:


html/blog:


bbcode/forum:




Aggiungi Commento