* Dettagli Torrent   globale  | Commenti (0) 


- Gaslit.S01E08.Gli.Ultimi.Giorni.ITA-ENG.1080p.AMZN.WEB-DL.DDP5.1.H.264-gattopollo.mkv -


Download via torrent:
Categoria bittorrent SerieTv
Descrizione
[center].:: TITOLO ::.[/center]

[center]Gaslit.S01.ITA-ENG.1080p.AMZN.WEB-DL.DDP5.1.H.264-gattopollo[/size][/center]

[center][/center]

[center].:: INFO SERIE ::.[/center]

[center]
Paese Stati Uniti d'America
Anno 2022
Formato serie TV
Genere biografico, drammatico, storico
Lingua originale inglese
IMDb


.:: TRAMA ::.

In qualità di procuratore generale, John Mitchell (Sean Penn) è il più fidato consigliere nonché migliore amico di Nixon. Capriccioso, sboccato e spietato - ma irrimediabilmente innamorato della sua schietta e famosa moglie - si troverà costretto a scegliere tra Martha e il presidente

.:: SCREENSHOT ::.

[/center]

[center].:: INFO TECNICHE ::.

Sorgente Video: AMZN
Sorgente Audio : AMZN
Risoluzione: 1920x1080, H.264 CBR
Audio 1: ITA E-AC3 6ch @640Kb/s
Audio 2: ENG E-AC3 6ch @640kb/s
Sottotitoli: ITA FORCED, ITA FULL, ENG FULL, ENG SDH [/center]

[center].:: MEDIAINFO ::.[/center]


Code

General
General
Unique ID                                : 89185793243565320946748001463968279421 (0x43188F1974A00A033A6BDE43F3D52B7D)
Complete name                            : Gaslit.S01E01.Forza.Di.Volonta.ITA-ENG.1080p.AMZN.WEB-DL.DDP5.1.H.264-gattopollo.mkv
Format                                   : Matroska
Format version                           : Version 4
File size                                : 4.09 GiB
Duration                                 : 1 h 0 min
Overall bit rate                         : 9 639 kb/s
Encoded date                             : UTC 2022-04-24 07:12:24
Writing application                      : mkvmerge v67.0.0 ('Under Stars&#39 64-bit
Writing library                          : libebml v1.4.2 + libmatroska v1.6.4

Video
ID                                       : 1
Format                                   : AVC
Format/Info                              : Advanced Video Codec
Format profile                           : [email protected]
Format settings                          : CABAC / 4 Ref Frames
Format settings, CABAC                   : Yes
Format settings, Reference frames        : 4 frames
Codec ID                                 : V_MPEG4/ISO/AVC
Duration                                 : 1 h 0 min
Bit rate mode                            : Constant
Bit rate                                 : 8 356 kb/s
Nominal bit rate                         : 10 000 kb/s
Width                                    : 1 920 pixels
Height                                   : 1 080 pixels
Display aspect ratio                     : 16:9
Frame rate mode                          : Constant
Frame rate                               : 23.976 (24000/1001) FPS
Color space                              : YUV
Chroma subsampling                       : 4:2:0
Bit depth                                : 8 bits
Scan type                                : Progressive
Bits/(Pixel*Frame)                       : 0.168
Stream size                              : 3.54 GiB (87%)
Language                                 : English
Default                                  : Yes
Forced                                   : No
Color range                              : Limited
Color primaries                          : BT.709
Transfer characteristics                 : BT.709
Matrix coefficients                      : BT.709

Audio #1
ID                                       : 2
Format                                   : E-AC-3
Format/Info                              : Enhanced AC-3
Commercial name                          : Dolby Digital Plus
Codec ID                                 : A_EAC3
Duration                                 : 1 h 0 min
Bit rate mode                            : Constant
Bit rate                                 : 640 kb/s
Channel(s)                               : 6 channels
Channel layout                           : L R C LFE Ls Rs
Sampling rate                            : 48.0 kHz
Frame rate                               : 31.250 FPS (1536 SPF)
Compression mode                         : Lossy
Stream size                              : 278 MiB (7%)
Language                                 : Italian
Service kind                             : Complete Main
Default                                  : Yes
Forced                                   : No

Audio #2
ID                                       : 3
Format                                   : E-AC-3
Format/Info                              : Enhanced AC-3
Commercial name                          : Dolby Digital Plus
Codec ID                                 : A_EAC3
Duration                                 : 1 h 0 min
Bit rate mode                            : Constant
Bit rate                                 : 640 kb/s
Channel(s)                               : 6 channels
Channel layout                           : L R C LFE Ls Rs
Sampling rate                            : 48.0 kHz
Frame rate                               : 31.250 FPS (1536 SPF)
Compression mode                         : Lossy
Stream size                              : 278 MiB (7%)
Language                                 : English
Service kind                             : Complete Main
Default                                  : No
Forced                                   : No

Text #1
ID                                       : 4
Format                                   : UTF-8
Codec ID                                 : S_TEXT/UTF8
Codec ID/Info                            : UTF-8 Plain Text
Duration                                 : 58 min 10 s
Bit rate                                 : 1 b/s
Count of elements                        : 18
Stream size                              : 578 Bytes (0%)
Title                                    : Forced
Language                                 : Italian
Default                                  : Yes
Forced                                   : Yes

Text #2
ID                                       : 5
Format                                   : UTF-8
Codec ID                                 : S_TEXT/UTF8
Codec ID/Info                            : UTF-8 Plain Text
Duration                                 : 1 h 0 min
Bit rate                                 : 69 b/s
Count of elements                        : 943
Stream size                              : 30.8 KiB (0%)
Language                                 : Italian
Default                                  : No
Forced                                   : No

Text #3
ID                                       : 6
Format                                   : UTF-8
Codec ID                                 : S_TEXT/UTF8
Codec ID/Info                            : UTF-8 Plain Text
Duration                                 : 58 min 9 s
Bit rate                                 : 78 b/s
Count of elements                        : 1102
Stream size                              : 33.5 KiB (0%)
Language                                 : English
Default                                  : No
Forced                                   : No

Text #4
ID                                       : 7
Format                                   : UTF-8
Codec ID                                 : S_TEXT/UTF8
Codec ID/Info                            : UTF-8 Plain Text
Duration                                 : 58 min 24 s
Bit rate                                 : 88 b/s
Count of elements                        : 1283
Stream size                              : 37.9 KiB (0%)
Title                                    : SDH
Language                                 : English
Default                                  : No
Forced                                   : No






[center].:: TORRENT LINK ::.[/center]
[center]Gaslit.S01.ITA-ENG.1080p.AMZN.WEB-DL.DDP5.1.H.264-gattopollo[/center]



Info: Per scaricare devi usare un client come uTorrent o Transmission
AnnounceURL
udp://tracker.opentrackr.org:1337/announce
Hash 67556234d75829acab343dbdb926d2a74fe889a7
Peers seeds: 12 , leech: 3
Size 4.24 GB
Completato 425x
Aggiunto 16.06.22 - 12:06:34
Uploader   ppb1
Votazione (Voti: 0)


Condividi questo bittorrent:


html/blog:


bbcode/forum:




Aggiungi Commento