* Dettagli Torrent   globale  | Commenti (0) 


- [2002] Resident Evil [ALTERNATIVE ENDING] [720p.x264.ITA-ENG] (by.phadron) MIRCrew -


Download via torrent:
Categoria bittorrent BDRip
Descrizione





Mille grazie a El Presidente per la creazione dei SUB ITA Forzati per il finale alternativo !!!

Screen: QUI
Info: MIRCrew forum release

Unique ID                                : 159964509029147936401303251413081809388 (0x78580B3655E2EA96A784C31FDA0461EC)
Complete name                            : [2002] Resident Evil [ALTERNATIVE ENDING] [720p.x264.ITA-ENG] (by.phadron) MIRCrew.mkv
Format                                   : Matroska
Format version                           : Version 4
File size                                : 3.17 GiB
Duration                                 : 1 h 40 min
Overall bit rate                         : 4 522 kb/s
Movie name                               : Resident Evil (2002) Extended Cut
Encoded date                             : UTC 2022-06-08 06:35:04
Writing application                      : mkvmerge v68.0.0 ('The Curtain&#39 64-bit
Writing library                          : libebml v1.4.2 + libmatroska v1.6.4
Cover                                    : Yes
Attachments                              : 2002-Residentr-Evil-Alternative-Ending_cover.jpg

Video
ID                                       : 1
Format                                   : AVC
Format/Info                              : Advanced Video Codec
Format profile                           : [email protected]
Format settings                          : 1 Ref Frames
Format settings, CABAC                   : No
Format settings, Reference frames        : 1 frame
Codec ID                                 : V_MPEG4/ISO/AVC
Duration                                 : 1 h 37 min
Bit rate                                 : 4 015 kb/s
Width                                    : 1 280 pixels
Height                                   : 720 pixels
Display aspect ratio                     : 16:9
Frame rate mode                          : Constant
Frame rate                               : 25.000 FPS
Color space                              : YUV
Chroma subsampling                       : 4:2:0
Bit depth                                : 8 bits
Scan type                                : Progressive
Bits/(Pixel*Frame)                       : 0.174
Stream size                              : 2.73 GiB (86%)
Language                                 : English
Default                                  : Yes
Forced                                   : No

Audio #1
ID                                       : 2
Format                                   : MPEG Audio
Format version                           : Version 1
Format profile                           : Layer 3
Format settings                          : Joint stereo
Codec ID                                 : A_MPEG/L3
Codec ID/Hint                            : MP3
Duration                                 : 1 h 37 min
Bit rate mode                            : Constant
Bit rate                                 : 192 kb/s
Channel(s)                               : 2 channels
Sampling rate                            : 48.0 kHz
Frame rate                               : 41.667 FPS (1152 SPF)
Compression mode                         : Lossy
Stream size                              : 134 MiB (4%)
Title                                    : Original
Language                                 : English
Default                                  : No
Forced                                   : No

Audio #2
ID                                       : 3
Format                                   : AC-3
Format/Info                              : Audio Coding 3
Commercial name                          : Dolby Digital
Codec ID                                 : A_AC3
Duration                                 : 1 h 40 min
Bit rate mode                            : Constant
Bit rate                                 : 448 kb/s
Channel(s)                               : 6 channels
Channel layout                           : L R C LFE Ls Rs
Sampling rate                            : 48.0 kHz
Frame rate                               : 31.250 FPS (1536 SPF)
Compression mode                         : Lossy
Stream size                              : 322 MiB (10%)
Language                                 : Italian
Service kind                             : Complete Main
Default                                  : Yes
Forced                                   : Yes

Text
ID                                       : 4
Format                                   : UTF-8
Codec ID                                 : S_TEXT/UTF8
Codec ID/Info                            : UTF-8 Plain Text
Duration                                 : 28 s 120 ms
Bit rate                                 : 62 b/s
Count of elements                        : 5
Stream size                              : 218 Bytes (0%)
Title                                    : Forzati
Language                                 : Italian
Default                                  : Yes
Forced                                   : Yes
Info: Per scaricare devi usare un client come uTorrent o Transmission
AnnounceURL
udp://tracker.torrent.eu.org:451/announce
Hash 78c92a6fe11d34c8821d800e09a3d928f09d472f
Peers seeds: 7 , leech: 5
Size 3.17 GB
Completato 586x
Aggiunto 08.06.22 - 10:06:45
Uploader   phadron
Votazione (Voti: 0)


Condividi questo bittorrent:


html/blog:


bbcode/forum:




Aggiungi Commento