* Dettagli Torrent   globale  | Commenti (0) 


- Il settimo sigillo EXTRA (1957) 1080p x265 AC3 Ita Eng AAC Swe Sub Ita Eng -


Download via torrent:
Categoria bittorrent BDRip
Descrizione


SCHEDA FILM
Titolo: Il settimo sigillo
Titolo originale: Det sjunde inseglet
Paese di produzione: Svezia
Anno: 1957
Genere: epico, fantastico, drammatico
Regia: Ingmar Bergman
Durata: 96 min

CAST
Max von Sydow: Antonius Block, il cavaliere
Gunnar Björnstrand: Jöns, lo scudiero
Bengt Ekerot: la Morte
Nils Poppe: Jof
Bibi Andersson: Mia
Inga Gill: Lisa
Maud Hansson: strega
Inga Landgré: Karin Block
Gunnel Lindblom: giovane donna che segue lo scudiero
Bertil Anderberg: Raval
Anders Ek: monaco
Åke Fridell: Plog, il fabbro
Gunnar Olsson: Albertus Pictor
Erik Strandmark: Jonas Skat

TRAMA

QUOTE:

Quando l'Agnello aprì il settimo sigillo, nel cielo si fece un silenzio di circa mezz'ora e vidi i sette angeli che stavano dinnanzi a Dio e furono loro date sette trombe


In un Nord Europa dove imperversano peste e disperazione tornano dalle crociate in Terra Santa il nobile cavaliere Antonius Block e il suo scudiero nichilista Jöns. Sulla spiaggia, al suo arrivo, il cavaliere trova ad attenderlo la Morte, che ha scelto quel momento per portarlo via. Block decide di sfidarla a scacchi, per rimandare la sua dipartita, e la Morte acconsente al rinvio.
Durante il rinvio concessogli dalla Morte, Antonius e il suo scudiero Jöns incontrano parecchie persone. Molti, presi dalla paura della morte, si sottopongono a violente pratiche per l'espiazione dei propri peccati, altri inseguono gli ultimi piaceri prima della fine. Jöns salva anche una donna da Raval, un uomo che dieci anni prima aveva convinto il cavaliere a intraprendere la crociata.
I due assistono anche ad uno spettacolo teatrale messo in scena da dei saltimbanchi guidati dall'attore-manager Skat, che durante la rappresentazione, fuggirà con la moglie di un fabbro.
Il cavaliere s'imbatte poi proprio nella famiglia di saltimbanchi abbandonata da Skat: Jof, Mia e il loro piccolino Mikael. La famiglia non sembra accorgersi della tragedia che li circonda, uniti solo dall'amore reciproco e da un sincero rispetto. Questo incontro aiuterà Antonius a mettere da parte la sua angosciosa ricerca di Dio e di conseguenza accetterà il suo destino non prima di un ultimo gesto significativo: salvare dalla Morte la famigliola.
Dopo aver distratto la Morte per permettere a Jof, Mia e Mikael la fuga, il cavaliere raggiunge il suo castello, dove si ricongiunge con la moglie Karin e dove gusta un ultimo banchetto con i suoi compagni di viaggio: il fido scudiero, la donna che questi ha salvato, il fabbro e sua moglie, prima che la Morte venga a prenderli.
Nel finale il saltimbanco Jof ha una visione: su una collina distante vede il cavaliere, lo scudiero, il fabbro e la moglie, Raval e Skat, guidati dalla Morte in una danza macabra.

CRITICA

QUOTE:

Il piu' noto film di Bergman non e' pero' il migliore: troppo programmatico il simbolismo, e di maniera (ma per i tempi originale) l'ambientazione in un Medioevo specchio del caos contemporaneo, dove si mescolano sacro e profano, tragedia e farsa. I quesiti metafisici sono trattati in modo un po' schematico, ma dal punto di vista figurativo il film conserva un fascino innegabile, pieno com'e' di richiami pittorici e scultorei su cui il regista ricama liberamente.


Da Il Mereghetti.

SCREENSHOT




SCHEDA TECNICA
[spoiler]
General
Unique ID                                : 68725988354365981398451812629068201791 (0x33B424D62ABCB2EBA296E665F23D3F3F)
Complete name                            : Il settimo sigillo (1957) - Det sjunde inseglet (Ingmar Bergman) [1080p, x265, AC3][ITA, SWE, ENG].mkv
Format                                   : Matroska
Format version                           : Version 4
File size                                : 3.40 GiB
Duration                                 : 1 h 37 min
Overall bit rate                         : 4 978 kb/s
Movie name                               : Il settimo sigillo
Encoded date                             : UTC 2022-03-16 12:48:12
Writing application                      : mkvmerge v45.0.0 ('Heaven in Pennies&#39 64-bit
Writing library                          : libebml v1.3.10 + libmatroska v1.5.2

Video
ID                                       : 1
Format                                   : HEVC
Format/Info                              : High Efficiency Video Coding
Format profile                           : [email protected]@Main
Codec ID                                 : V_MPEGH/ISO/HEVC
Duration                                 : 1 h 37 min
Bit rate                                 : 3 819 kb/s
Width                                    : 1 480 pixels
Height                                   : 1 076 pixels
Display aspect ratio                     : 1.375
Frame rate mode                          : Constant
Frame rate                               : 23.976 (24000/1001) FPS
Color space                              : YUV
Chroma subsampling                       : 4:2:0
Bit depth                                : 8 bits
Bits/(Pixel*Frame)                       : 0.100
Stream size                              : 2.59 GiB (76%)
Writing library                          : x265 3.2.1+1-b5c86a64bbbe:[Linux][GCC 9.3.0][64 bit] 8bit+10bit+12bit
Encoding settings                        : cpuid=1111039 / frame-threads=4 / wpp / no-pmode / no-pme / no-psnr / no-ssim / log-level=2 / input-csp=1 / input-res=1480x1076 / interlace=0 / total-frames=0 / level-idc=0 / high-tier=1 / uhd-bd=0 / ref=4 / no-allow-non-conformance / no-repeat-headers / annexb / no-aud / no-hrd / info / hash=0 / no-temporal-layers / open-gop / min-keyint=24 / keyint=240 / gop-lookahead=0 / bframes=4 / b-adapt=2 / b-pyramid / bframe-bias=0 / rc-lookahead=25 / lookahead-slices=4 / scenecut=40 / radl=0 / no-splice / no-intra-refresh / ctu=64 / min-cu-size=8 / no-rect / no-amp / max-tu-size=32 / tu-inter-depth=1 / tu-intra-depth=1 / limit-tu=0 / rdoq-level=2 / dynamic-rd=0.00 / no-ssim-rd / signhide / no-tskip / nr-intra=0 / nr-inter=0 / no-constrained-intra / no-strong-intra-smoothing / max-merge=3 / limit-refs=3 / limit-modes / me=3 / subme=3 / merange=57 / temporal-mvp / no-hme / weightp / no-weightb / no-analyze-src-pics / deblock=0:0 / sao / no-sao-non-deblock / rd=4 / selective-sao=4 / no-early-skip / rskip / no-fast-intra / no-tskip-fast / no-cu-lossless / no-b-intra / no-splitrd-skip / rdpenalty=0 / psy-rd=2.00 / psy-rdoq=1.00 / no-rd-refine / no-lossless / cbqpoffs=0 / crqpoffs=0 / rc=crf / crf=22.0 / qcomp=0.60 / qpstep=4 / stats-write=0 / stats-read=0 / ipratio=1.40 / pbratio=1.30 / aq-mode=1 / aq-strength=1.00 / cutree / zone-count=0 / no-strict-cbr / qg-size=32 / no-rc-grain / qpmax=69 / qpmin=0 / no-const-vbv / sar=1 / overscan=0 / videoformat=5 / range=0 / colorprim=1 / transfer=1 / colormatrix=1 / chromaloc=0 / display-window=0 / cll=0,0 / min-luma=0 / max-luma=255 / log2-max-poc-lsb=8 / vui-timing-info / vui-hrd-info / slices=1 / no-opt-qp-pps / no-opt-ref-list-length-pps / no-multi-pass-opt-rps / scenecut-bias=0.05 / no-opt-cu-delta-qp / no-aq-motion / no-hdr / no-hdr-opt / no-dhdr10-opt / no-idr-recovery-sei / analysis-reuse-level=5 / scale-factor=0 / refine-intra=0 / refine-inter=0 / refine-mv=1 / refine-ctu-distortion=0 / no-limit-sao / ctu-info=0 / no-lowpass-dct / refine-analysis-type=0 / copy-pic=1 / max-ausize-factor=1.0 / no-dynamic-refine / no-single-sei / no-hevc-aq / no-svt / no-field / qp-adaptation-range=1.00
Default                                  : Yes
Forced                                   : No
Color range                              : Limited
Color primaries                          : BT.709
Transfer characteristics                 : BT.709
Matrix coefficients                      : BT.709

Audio #1
ID                                       : 2
Format                                   : AC-3
Format/Info                              : Audio Coding 3
Commercial name                          : Dolby Digital
Codec ID                                 : A_AC3
Duration                                 : 1 h 37 min
Bit rate mode                            : Constant
Bit rate                                 : 640 kb/s
Channel(s)                               : 2 channels
Channel layout                           : L R
Sampling rate                            : 48.0 kHz
Frame rate                               : 31.250 FPS (1536 SPF)
Compression mode                         : Lossy
Delay relative to video                  : -21 ms
Stream size                              : 448 MiB (13%)
Title                                    : Italiano
Language                                 : Italian
Service kind                             : Complete Main
Default                                  : Yes
Forced                                   : No

Audio #2
ID                                       : 3
Format                                   : AAC LC
Format/Info                              : Advanced Audio Codec Low Complexity
Codec ID                                 : A_AAC-2
Duration                                 : 1 h 37 min
Bit rate                                 : 157 kb/s
Channel(s)                               : 1 channel
Channel layout                           : C
Sampling rate                            : 48.0 kHz
Frame rate                               : 46.875 FPS (1024 SPF)
Compression mode                         : Lossy
Delay relative to video                  : -21 ms
Stream size                              : 109 MiB (3%)
Title                                    : Swedish
Language                                 : Swedish
Default                                  : No
Forced                                   : No

Audio #3
ID                                       : 4
Format                                   : AC-3
Format/Info                              : Audio Coding 3
Commercial name                          : Dolby Digital
Codec ID                                 : A_AC3
Duration                                 : 1 h 37 min
Bit rate mode                            : Constant
Bit rate                                 : 192 kb/s
Channel(s)                               : 1 channel
Channel layout                           : C
Sampling rate                            : 48.0 kHz
Frame rate                               : 31.250 FPS (1536 SPF)
Compression mode                         : Lossy
Stream size                              : 133 MiB (4%)
Title                                    : English commentary
Language                                 : English
Service kind                             : Complete Main
Default                                  : No
Forced                                   : No

Audio #4
ID                                       : 5
Format                                   : AC-3
Format/Info                              : Audio Coding 3
Commercial name                          : Dolby Digital
Codec ID                                 : A_AC3
Duration                                 : 1 h 37 min
Bit rate mode                            : Constant
Bit rate                                 : 192 kb/s
Channel(s)                               : 1 channel
Channel layout                           : C
Sampling rate                            : 48.0 kHz
Frame rate                               : 31.250 FPS (1536 SPF)
Compression mode                         : Lossy
Stream size                              : 133 MiB (4%)
Title                                    : English
Language                                 : English
Service kind                             : Complete Main
Default                                  : No
Forced                                   : No

Text #1
ID                                       : 6
Format                                   : PGS
Muxing mode                              : zlib
Codec ID                                 : S_HDMV/PGS
Codec ID/Info                            : Picture based subtitle format used on BDs/HD-DVDs
Duration                                 : 1 h 35 min
Bit rate                                 : 41.8 kb/s
Count of elements                        : 2070
Stream size                              : 28.7 MiB (1%)
Title                                    : English
Language                                 : English
Default                                  : No
Forced                                   : No

Text #2
ID                                       : 7
Format                                   : UTF-8
Codec ID                                 : S_TEXT/UTF8
Codec ID/Info                            : UTF-8 Plain Text
Duration                                 : 1 h 36 min
Bit rate                                 : 53 b/s
Count of elements                        : 1057
Stream size                              : 37.7 KiB (0%)
Title                                    : Italiano
Language                                 : Italian
Default                                  : Yes
Forced                                   : No


[/spoiler]

EXTRA
1. EXTRA - Introduzione del regista Ingmar Bergman [SWE - SUB ITA]
2. EXTRA - An essay on the film by critic Gary Giddins [ENG]
3. EXTRA - Bergman 101 - a video essay created by Cowie in 2009 [ENG]
4. EXTRA - Tribute to Bergman by filmmaker Woody Allen [ENG]
3. EXTRA - Trailer [SWE - SUB ENG]

Dimensione: 4,5 GB
Info: Per scaricare devi usare un client come uTorrent o Transmission
AnnounceURL
udp://tracker.torrent.eu.org:451/announce
Hash d545fbbe947fc08a4bb8930f89f6e60270ed200e
Peers seeds: 14 , leech: 3
Size 4.47 GB
Completato 728x
Aggiunto 07.06.22 - 10:06:47
Uploader   denise1234
Votazione (Voti: 0)


Condividi questo bittorrent:


html/blog:


bbcode/forum:




Aggiungi Commento