* Dettagli Torrent   globale  | Commenti (0) 


- Il posto delle fragole (1957) 1080p x265 AC3 Ita Eng Swe Sub Ita Eng -


Download via torrent:
Categoria bittorrent BDRip
Descrizione



SCHEDA FILM
Titolo: Il posto delle fragole
Titolo originale: Smultronstället
Paese di produzione: Svezia
Anno: 1957
Genere: drammatico, sentimentale
Regia: Ingmar Bergman
Durata: 91 min

CAST
Victor Sjöström: Isak Borg
Bibi Andersson: Sara
Ingrid Thulin: Marianne
Gunnar Björnstrand: Evald
Jullan Kindahl: Agda
Folke Sundquist: Anders
Björn Bjelfvenstam: Viktor
Naima Wifstrand: signora Borg
Gunnel Broström: signora Alman
Gertrud Fridh: Karin Borg
Sif Ruud: zia Olga
Gunnar Sjöberg: Sten Alman / l'esaminatore
Max von Sydow: Henrik Åkerman
Åke Fridell: amante di Karin

TRAMA
In occasione del 50° anniversario della sua attività lavorativa, l’anziano Isak Borg (Victor Sjöström), eccelso professore di medicina, deve raggiungere l’università di Lund in Svezia per ritirare un prestigioso premio alla carriera. Tuttavia, il giorno della partenza, dopo aver fatto un terribile incubo in cui rivede se stesso morto dentro una bara, il professore decide di non affrontare più il viaggio in aereo, ma di spostarsi in automobile. La nuora Marienne (Ingrid Thulin), che sta attraversando un momento difficile con il marito a causa della sua gravidanza, decide di accompagnare il suocero. Ma Marienne non prova simpatia per Isak, al quale contesta la marcata avarizia nei confronti del figlio Evald e il carattere duro e distaccato.
Il lungo tragitto da Stoccolma alla Svezia diventa per il settantottenne una preziosa occasione per ripercorrere tutta la sua esistenza. Durante l’itinerario, Isak ha modo di ritornare nei luoghi della sua adolescenza: rivede la casa dove aveva vissuto per vent’anni con le sue sorelle e i suoi fratelli, rincontra la cugina Sara (Bibi Andersson), di cui da giovane era molto innamorato, rivede il Posto delle Fragole, e infine incontra la sua vecchia e sola madre, ultranovantenne. Anche l’ospitalità in macchina di un gruppo di giovani amici, consente al vecchio professore, già travolto dai suoi ricordi, di analizzare tutta la sua vita, prendendo sempre più coscienza dei suoi errori e dei suoi limiti. Determinante, sarà poi un altro incubo: Isaak si trova ora al cospetto della cugina Sara, ancora giovane, che lo costringe a guardare in uno specchio il proprio volto anziano informandolo che presto dovrà morire...

CRITICA

QUOTE:
Se la giovinezza e' il superamento della "linea d'ombra" conradiana, la vecchiaia e' l'arrivo al "posto delle fragole" di Bergman. Il regista ha solo 37 anni, ma e' gia' capace di amari bilanci esistenziali, non a caso affidati alla sensibilita' del grande regista svedese Sjöström (qui alla sua ultima apparizione sul grande schermo). Il risultato e' un singolare road movie alla ricerca del tempo perduto, una straordinaria fiaba drammatica sulla solitudine che dal punto di vista formale oscilla tra l'espressionismo onirico (l'incubo iniziale e quello del processo) e il naturalismo quotidiano. Solo alla fine il ritmo sincopato di distende e i sussulti d'angoscia si sciolgono in un sorriso sereno: e la vita mancata del protagonista si illumina attraverso le vite ancora possibili dei suoi giovani compagni di strada. Un film ancora affascinante e significativo, uno dei migliori di Bergman.


Da Il Mereghetti.

PREMI E RICONOSCIMENTI
[list]
  • 1958 - Mostra internazionale d'arte cinematografica di Venezia:
    Premio della critica
  • 1958 - Festival internazionale del cinema di Berlino
    Premio FIPRESCI a Victor Sjöström, alla carriera e alla sua interpretazione nel film
    Orso d'oro al Festival di Berlino nel 1958 a Ingmar Bergman
  • 1959 - National Board of Review
    Miglior film straniero
    Miglior attore (Victor Sjöström)
  • 1959 - Premio Oscar
    Candidatura all'Oscar alla migliore sceneggiatura originale[34]
  • 1959 - Premio Bodil
    Miglior film europeo
  • 1959 - Festival internazionale del cinema di Mar del Plata
    Migliore attore (Victor Sjöström)
    Migliore film
  • 1960 - Golden Globe
    Migliore film straniero (a pari merito con Orfeo negro, La chiave, Il ponte, Finalmente l'alba)
  • 1960 - Nastro d'argento
    Nastro d'argento al regista del miglior film straniero
  • 1963 - Kinema Junpo Awards
    Migliore film straniero
    [/list]


    SCREENSHOT




    SCHEDA TECNICA
    [spoiler]
    General
    Unique ID                                : 293329409329370447332022605318155821723 (0xDCAD3075F1B66FFA3597D30AAFC6629B)
    Complete name                            : Il posto delle fragole (1957) - Smultronstället (Ingmar Bergman) [1080p, x265, AC3][ITA, SWE, ENG].mkv
    Format                                   : Matroska
    Format version                           : Version 4
    File size                                : 4.42 GiB
    Duration                                 : 1 h 32 min
    Overall bit rate                         : 6 834 kb/s
    Movie name                               : Il posto delle fragole
    Encoded date                             : UTC 2022-02-21 08:56:32
    Writing application                      : mkvmerge v45.0.0 ('Heaven in Pennies&#39 64-bit
    Writing library                          : libebml v1.3.10 + libmatroska v1.5.2

    Video
    ID                                       : 6
    Format                                   : HEVC
    Format/Info                              : High Efficiency Video Coding
    Format profile                           : [email protected]@Main
    Codec ID                                 : V_MPEGH/ISO/HEVC
    Duration                                 : 1 h 32 min
    Bit rate                                 : 5 999 kb/s
    Width                                    : 1 420 pixels
    Height                                   : 1 080 pixels
    Display aspect ratio                     : 4:3
    Frame rate mode                          : Constant
    Frame rate                               : 23.976 (24000/1001) FPS
    Color space                              : YUV
    Chroma subsampling                       : 4:2:0
    Bit depth                                : 8 bits
    Bits/(Pixel*Frame)                       : 0.163
    Stream size                              : 3.88 GiB (88%)
    Writing library                          : x265 3.2.1+1-b5c86a64bbbe:[Linux][GCC 9.3.0][64 bit] 8bit+10bit+12bit
    Encoding settings                        : cpuid=1111039 / frame-threads=4 / wpp / no-pmode / no-pme / no-psnr / no-ssim / log-level=2 / input-csp=1 / input-res=1420x1080 / interlace=0 / total-frames=0 / level-idc=0 / high-tier=1 / uhd-bd=0 / ref=4 / no-allow-non-conformance / no-repeat-headers / annexb / no-aud / no-hrd / info / hash=0 / no-temporal-layers / open-gop / min-keyint=24 / keyint=240 / gop-lookahead=0 / bframes=4 / b-adapt=2 / b-pyramid / bframe-bias=0 / rc-lookahead=25 / lookahead-slices=4 / scenecut=40 / radl=0 / no-splice / no-intra-refresh / ctu=64 / min-cu-size=8 / no-rect / no-amp / max-tu-size=32 / tu-inter-depth=1 / tu-intra-depth=1 / limit-tu=0 / rdoq-level=2 / dynamic-rd=0.00 / no-ssim-rd / signhide / no-tskip / nr-intra=0 / nr-inter=0 / no-constrained-intra / no-strong-intra-smoothing / max-merge=3 / limit-refs=3 / limit-modes / me=3 / subme=3 / merange=57 / temporal-mvp / no-hme / weightp / no-weightb / no-analyze-src-pics / deblock=0:0 / sao / no-sao-non-deblock / rd=4 / selective-sao=4 / no-early-skip / rskip / no-fast-intra / no-tskip-fast / no-cu-lossless / no-b-intra / no-splitrd-skip / rdpenalty=0 / psy-rd=2.00 / psy-rdoq=1.00 / no-rd-refine / no-lossless / cbqpoffs=0 / crqpoffs=0 / rc=crf / crf=22.0 / qcomp=0.60 / qpstep=4 / stats-write=0 / stats-read=0 / ipratio=1.40 / pbratio=1.30 / aq-mode=1 / aq-strength=1.00 / cutree / zone-count=0 / no-strict-cbr / qg-size=32 / no-rc-grain / qpmax=69 / qpmin=0 / no-const-vbv / sar=1 / overscan=0 / videoformat=5 / range=0 / colorprim=1 / transfer=1 / colormatrix=1 / chromaloc=0 / display-window=0 / cll=0,0 / min-luma=0 / max-luma=255 / log2-max-poc-lsb=8 / vui-timing-info / vui-hrd-info / slices=1 / no-opt-qp-pps / no-opt-ref-list-length-pps / no-multi-pass-opt-rps / scenecut-bias=0.05 / no-opt-cu-delta-qp / no-aq-motion / no-hdr / no-hdr-opt / no-dhdr10-opt / no-idr-recovery-sei / analysis-reuse-level=5 / scale-factor=0 / refine-intra=0 / refine-inter=0 / refine-mv=1 / refine-ctu-distortion=0 / no-limit-sao / ctu-info=0 / no-lowpass-dct / refine-analysis-type=0 / copy-pic=1 / max-ausize-factor=1.0 / no-dynamic-refine / no-single-sei / no-hevc-aq / no-svt / no-field / qp-adaptation-range=1.00
    Default                                  : Yes
    Forced                                   : No
    Color range                              : Limited
    Color primaries                          : BT.709
    Transfer characteristics                 : BT.709
    Matrix coefficients                      : BT.709

    Audio #1
    ID                                       : 1
    Format                                   : AC-3
    Format/Info                              : Audio Coding 3
    Commercial name                          : Dolby Digital
    Codec ID                                 : A_AC3
    Duration                                 : 1 h 32 min
    Bit rate mode                            : Constant
    Bit rate                                 : 320 kb/s
    Channel(s)                               : 6 channels
    Channel layout                           : L R C LFE Ls Rs
    Sampling rate                            : 48.0 kHz
    Frame rate                               : 31.250 FPS (1536 SPF)
    Compression mode                         : Lossy
    Delay relative to video                  : -21 ms
    Stream size                              : 212 MiB (5%)
    Title                                    : Italiano
    Language                                 : Italian
    Service kind                             : Complete Main
    Default                                  : Yes
    Forced                                   : No

    Audio #2
    ID                                       : 2
    Format                                   : AC-3
    Format/Info                              : Audio Coding 3
    Commercial name                          : Dolby Digital
    Codec ID                                 : A_AC3
    Duration                                 : 1 h 32 min
    Bit rate mode                            : Constant
    Bit rate                                 : 320 kb/s
    Channel(s)                               : 1 channel
    Channel layout                           : C
    Sampling rate                            : 48.0 kHz
    Frame rate                               : 31.250 FPS (1536 SPF)
    Compression mode                         : Lossy
    Delay relative to video                  : -21 ms
    Stream size                              : 212 MiB (5%)
    Title                                    : Swedish
    Language                                 : Swedish
    Service kind                             : Complete Main
    Default                                  : No
    Forced                                   : No

    Audio #3
    ID                                       : 3
    Format                                   : AC-3
    Format/Info                              : Audio Coding 3
    Commercial name                          : Dolby Digital
    Codec ID                                 : A_AC3
    Duration                                 : 1 h 32 min
    Bit rate mode                            : Constant
    Bit rate                                 : 192 kb/s
    Channel(s)                               : 1 channel
    Channel layout                           : C
    Sampling rate                            : 48.0 kHz
    Frame rate                               : 31.250 FPS (1536 SPF)
    Compression mode                         : Lossy
    Delay relative to video                  : -16 ms
    Stream size                              : 127 MiB (3%)
    Title                                    : English commentary
    Language                                 : English
    Service kind                             : Complete Main
    Default                                  : No
    Forced                                   : No

    Text #1
    ID                                       : 4
    Format                                   : UTF-8
    Codec ID                                 : S_TEXT/UTF8
    Codec ID/Info                            : UTF-8 Plain Text
    Duration                                 : 1 h 29 min
    Bit rate                                 : 50 b/s
    Count of elements                        : 1149
    Stream size                              : 32.9 KiB (0%)
    Title                                    : Italiano
    Language                                 : Italian
    Default                                  : No
    Forced                                   : No

    Text #2
    ID                                       : 5
    Format                                   : UTF-8
    Codec ID                                 : S_TEXT/UTF8
    Codec ID/Info                            : UTF-8 Plain Text
    Duration                                 : 1 h 29 min
    Bit rate                                 : 51 b/s
    Count of elements                        : 959
    Stream size                              : 33.7 KiB (0%)
    Title                                    : English
    Language                                 : English
    Default                                  : No
    Forced                                   : No


    [/spoiler]

    EXTRA
    1. EXTRA - Behind-the-scenes footage shot by Bergman [SWE]
    2. EXTRA - Ingmar Bergman on Life and Work [SWE - SUB ENG]
    3. EXTRA - Introduzione del regista Ingmar Bergman [SWE - SUB ITA]

    Dimensione: 6,2 GB
  • Info: Per scaricare devi usare un client come uTorrent o Transmission
    AnnounceURL
    udp://tracker.torrent.eu.org:451/announce
    Hash b3c859663cad22c8fc5c473b37b0068256e26f7a
    Peers seeds: 16 , leech: 2
    Size 6.17 GB
    Completato 462x
    Aggiunto 07.06.22 - 10:06:30
    Uploader   denise1234
    Votazione (Voti: 0)


    Condividi questo bittorrent:


    html/blog:


    bbcode/forum:




    Aggiungi Commento