* Dettagli Torrent   globale  | Commenti (0) 


- La fontana della vergine EXTRA (1960) 1080p x265 AC3 Ita Eng AAC Swe Sub Eng -


Download via torrent:
Categoria bittorrent BDRip
Descrizione



SCHEDA FILM
Titolo: La fontana della vergine
Titolo originale: Jungfrukällan
Paese di produzione: Svezia
Anno: 1960
Genere: epico, drammatico
Regia: Ingmar Bergman
Durata: 89 min

CAST
Birgitta Pettersson: Karin
Gunnel Lindblom: Ingeri
Max von Sydow: Töre
Birgitta Valberg: Märeta
Axel Düberg: Pastore magro
Tor Isedal: Pastore muto
Ove Porath: Bambino
Allan Edwall: Mendicante
Oscar Ljung: Simon
Gudrun Brost: Frieda
Axel Slangus: Il guardiano del ponte
Tor Borong: Un bracciante
Leif Forstenberg: Un bracciante

TRAMA
Nella Svezia medievale, il proprietario terriero Töre insiste perché la sua giovane figlia Karin consegni di persona dei ceri alla Madonna in un giorno di festa, in accordo alla tradizione che vuole che a farlo sia una ragazza vergine. La giovane è accompagnata da Ingeri, serva disonorata e pagana. Durante il viaggio però, dei briganti violentano e uccidono la giovane Karin, senza che Ingeri possa aiutarla, ma senza nemmeno che tenti di farlo, bloccata dall'invidia provata per la ragazza. Nella fuga, gli assassini cercano riparo per la notte proprio dal padre di Karin, a loro insaputa.
Dopo essersi rifocillati, essi commettono un inconsapevole e fatale errore: quello di offrire in vendita alla madre della ragazza la veste della figlia uccisa, veste che la donna prende dalle mani di uno dei briganti dicendo però che sull'acquisto solo il padrone di casa può decidere. Ai genitori non occorre molto per intuire quale sorte sia toccata alla loro Karin, specie dopo il racconto di Ingeri, che nel frattempo è tornata alla casa del padrone, benché inizialmente si sia nascosta in preda ai rimorsi.
Töre metterà in pratica la sua vendetta uccidendo i briganti, tra i quali purtroppo anche un bambino innocente. Più tardi, Ingeri accompagna la famiglia nel luogo in cui si trova il cadavere di Karin e, mentre cercano di spostarlo per dare sepoltura alla sfortunata ragazza, dal punto in cui era poggiata la testa prende a sgorgare una sorgente d'acqua.

CRITICA

QUOTE:

Impregnato di un misticismo severo e aspro, ben piu' livido di quello del Settimo Sigillo, [...] La fontana della vergine e' tuttavia uno dei film piu' ricchi di speranza del regista, come sottolinea la fonte dall'acqua purificatrice.


Da Il Mereghetti.

PREMI E RICONOSCIMENTI
[list]
  • 1961 - Premio Oscar
    Oscar al miglior film straniero
  • 1961 - Golden Globe
    Golden Globe per il miglior film straniero
  • 1960 - Festival di Cannes
    Menzione speciale
  • 1961 - Semana Internacional de Cine de Valladolid
    Lábaro de oro
    [/list]


    SCREENSHOT




    SCHEDA TECNICA
    [spoiler]
    General
    Unique ID                                : 50630394471717980606997414226038152565 (0x26170F2D08D51AEFDB36698FFD24DD75)
    Complete name                            : La fontana della vergine (1960) - Jungfrukällan (Ingmar Bergman) [1080p, x265, AC3][ITA, SWE, ENG].mkv
    Format                                   : Matroska
    Format version                           : Version 4
    File size                                : 3.20 GiB
    Duration                                 : 1 h 30 min
    Overall bit rate                         : 5 075 kb/s
    Movie name                               : La fontana della vergine
    Encoded date                             : UTC 2022-02-11 10:00:00
    Writing application                      : mkvmerge v45.0.0 ('Heaven in Pennies&#39 64-bit
    Writing library                          : libebml v1.3.10 + libmatroska v1.5.2

    Video
    ID                                       : 1
    Format                                   : HEVC
    Format/Info                              : High Efficiency Video Coding
    Format profile                           : [email protected]@Main
    Codec ID                                 : V_MPEGH/ISO/HEVC
    Duration                                 : 1 h 30 min
    Bit rate                                 : 3 886 kb/s
    Width                                    : 1 440 pixels
    Height                                   : 1 080 pixels
    Display aspect ratio                     : 4:3
    Frame rate mode                          : Constant
    Frame rate                               : 23.976 (24000/1001) FPS
    Color space                              : YUV
    Chroma subsampling                       : 4:2:0
    Bit depth                                : 8 bits
    Bits/(Pixel*Frame)                       : 0.104
    Stream size                              : 2.45 GiB (77%)
    Writing library                          : x265 3.2.1+1-b5c86a64bbbe:[Linux][GCC 9.3.0][64 bit] 8bit+10bit+12bit
    Encoding settings                        : cpuid=1111039 / frame-threads=4 / wpp / no-pmode / no-pme / no-psnr / no-ssim / log-level=2 / input-csp=1 / input-res=1440x1080 / interlace=0 / total-frames=0 / level-idc=0 / high-tier=1 / uhd-bd=0 / ref=4 / no-allow-non-conformance / no-repeat-headers / annexb / no-aud / no-hrd / info / hash=0 / no-temporal-layers / open-gop / min-keyint=24 / keyint=240 / gop-lookahead=0 / bframes=4 / b-adapt=2 / b-pyramid / bframe-bias=0 / rc-lookahead=25 / lookahead-slices=4 / scenecut=40 / radl=0 / no-splice / no-intra-refresh / ctu=64 / min-cu-size=8 / no-rect / no-amp / max-tu-size=32 / tu-inter-depth=1 / tu-intra-depth=1 / limit-tu=0 / rdoq-level=2 / dynamic-rd=0.00 / no-ssim-rd / signhide / no-tskip / nr-intra=0 / nr-inter=0 / no-constrained-intra / no-strong-intra-smoothing / max-merge=3 / limit-refs=3 / limit-modes / me=3 / subme=3 / merange=57 / temporal-mvp / no-hme / weightp / no-weightb / no-analyze-src-pics / deblock=0:0 / sao / no-sao-non-deblock / rd=4 / selective-sao=4 / no-early-skip / rskip / no-fast-intra / no-tskip-fast / no-cu-lossless / no-b-intra / no-splitrd-skip / rdpenalty=0 / psy-rd=2.00 / psy-rdoq=1.00 / no-rd-refine / no-lossless / cbqpoffs=0 / crqpoffs=0 / rc=crf / crf=22.0 / qcomp=0.60 / qpstep=4 / stats-write=0 / stats-read=0 / ipratio=1.40 / pbratio=1.30 / aq-mode=1 / aq-strength=1.00 / cutree / zone-count=0 / no-strict-cbr / qg-size=32 / no-rc-grain / qpmax=69 / qpmin=0 / no-const-vbv / sar=1 / overscan=0 / videoformat=5 / range=0 / colorprim=1 / transfer=1 / colormatrix=1 / chromaloc=0 / display-window=0 / cll=0,0 / min-luma=0 / max-luma=255 / log2-max-poc-lsb=8 / vui-timing-info / vui-hrd-info / slices=1 / no-opt-qp-pps / no-opt-ref-list-length-pps / no-multi-pass-opt-rps / scenecut-bias=0.05 / no-opt-cu-delta-qp / no-aq-motion / no-hdr / no-hdr-opt / no-dhdr10-opt / no-idr-recovery-sei / analysis-reuse-level=5 / scale-factor=0 / refine-intra=0 / refine-inter=0 / refine-mv=1 / refine-ctu-distortion=0 / no-limit-sao / ctu-info=0 / no-lowpass-dct / refine-analysis-type=0 / copy-pic=1 / max-ausize-factor=1.0 / no-dynamic-refine / no-single-sei / no-hevc-aq / no-svt / no-field / qp-adaptation-range=1.00
    Default                                  : Yes
    Forced                                   : No
    Color range                              : Limited
    Color primaries                          : BT.709
    Transfer characteristics                 : BT.709
    Matrix coefficients                      : BT.709

    Audio #1
    ID                                       : 2
    Format                                   : AC-3
    Format/Info                              : Audio Coding 3
    Commercial name                          : Dolby Digital
    Codec ID                                 : A_AC3
    Duration                                 : 1 h 30 min
    Bit rate mode                            : Constant
    Bit rate                                 : 640 kb/s
    Channel(s)                               : 2 channels
    Channel layout                           : L R
    Sampling rate                            : 48.0 kHz
    Frame rate                               : 31.250 FPS (1536 SPF)
    Compression mode                         : Lossy
    Delay relative to video                  : -1 s 459 ms
    Stream size                              : 413 MiB (13%)
    Title                                    : Italiano
    Language                                 : Italian
    Service kind                             : Complete Main
    Default                                  : Yes
    Forced                                   : No

    Audio #2
    ID                                       : 3
    Format                                   : AAC LC
    Format/Info                              : Advanced Audio Codec Low Complexity
    Codec ID                                 : A_AAC-2
    Duration                                 : 1 h 30 min
    Bit rate                                 : 158 kb/s
    Channel(s)                               : 1 channel
    Channel layout                           : C
    Sampling rate                            : 48.0 kHz
    Frame rate                               : 46.875 FPS (1024 SPF)
    Compression mode                         : Lossy
    Delay relative to video                  : -1 s 449 ms
    Stream size                              : 102 MiB (3%)
    Title                                    : Swedish
    Language                                 : Swedish
    Default                                  : No
    Forced                                   : No

    Audio #3
    ID                                       : 4
    Format                                   : AC-3
    Format/Info                              : Audio Coding 3
    Commercial name                          : Dolby Digital
    Codec ID                                 : A_AC3
    Duration                                 : 1 h 30 min
    Bit rate mode                            : Constant
    Bit rate                                 : 192 kb/s
    Channel(s)                               : 1 channel
    Channel layout                           : C
    Sampling rate                            : 48.0 kHz
    Frame rate                               : 31.250 FPS (1536 SPF)
    Compression mode                         : Lossy
    Delay relative to video                  : -1 s 438 ms
    Stream size                              : 124 MiB (4%)
    Title                                    : English commentary
    Language                                 : English
    Service kind                             : Complete Main
    Default                                  : No
    Forced                                   : No

    Audio #4
    ID                                       : 5
    Format                                   : AC-3
    Format/Info                              : Audio Coding 3
    Commercial name                          : Dolby Digital
    Codec ID                                 : A_AC3
    Duration                                 : 1 h 30 min
    Bit rate mode                            : Constant
    Bit rate                                 : 192 kb/s
    Channel(s)                               : 1 channel
    Channel layout                           : C
    Sampling rate                            : 48.0 kHz
    Frame rate                               : 31.250 FPS (1536 SPF)
    Compression mode                         : Lossy
    Delay relative to video                  : -1 s 438 ms
    Stream size                              : 124 MiB (4%)
    Title                                    : English
    Language                                 : English
    Service kind                             : Complete Main
    Default                                  : No
    Forced                                   : No

    Text
    ID                                       : 6
    Format                                   : PGS
    Muxing mode                              : zlib
    Codec ID                                 : S_HDMV/PGS
    Codec ID/Info                            : Picture based subtitle format used on BDs/HD-DVDs
    Duration                                 : 1 h 29 min
    Bit rate                                 : 23.2 kb/s
    Count of elements                        : 986
    Stream size                              : 14.8 MiB (0%)
    Title                                    : English
    Language                                 : English
    Default                                  : No
    Forced                                   : No

    [/spoiler]

    EXTRA
    1. EXTRA - Audio interview with Ingmar Bergman [ENG]
    2. EXTRA - Interview program featuring actors Gunnel Lindblom and Birgitta Pettersson [SWE - SUB ENG]
    3. EXTRA - Tribute by filmmaker Ang Lee [ENG]

    Dimensione: 4 GB
  • Info: Per scaricare devi usare un client come uTorrent o Transmission
    AnnounceURL
    udp://tracker.torrent.eu.org:451/announce
    Hash 3b76a4fcfea6a4944b1649c309592a5c6aeb389a
    Peers seeds: 10 , leech: 2
    Size 3.97 GB
    Completato 471x
    Aggiunto 07.06.22 - 10:06:23
    Uploader   denise1234
    Votazione (Voti: 0)


    Condividi questo bittorrent:


    html/blog:


    bbcode/forum:




    Aggiungi Commento