* Dettagli Torrent   globale  | Commenti (0) 


- L occhio del diavolo (1960) 1080p x265 AC3 Ita Swe Sub Ita Eng -


Download via torrent:
Categoria bittorrent BDRip
Descrizione



SCHEDA FILM
Titolo: L occhio del diavolo
Titolo originale: Djävulens öga
Paese di produzione: Svezia
Anno: 1960
Genere: fantastico, commedia, grottesco
Regia: Ingmar Bergman
Durata: 87 min

CAST
Jarl Kulle: Don Giovanni
Bibi Andersson: Britt Marie
Stig Järrel: Belzebù
Nils Poppe: il pastore
Gertrud Fridh: Renata
Sture Lagerwall: Pablo
Georg Funkquist: conte Armand de Rochefoucauld
Gunnar Sjöberg: marchese Giuseppe Maria de Macopanza
Torsten Winge: il demone sulla terra
Axel Düberg: Jonas
Kristina Adolphson: donna velata
Allan Edwall: diavolo orecchione
Gunnar Björnstrand: l’attore Svend Bunch

TRAMA
Il film ha inizio con l'immagine di un pianista che suona una musica di Scarlatti su una tastiera, mentre una didascalia, che riprende un vecchio proverbio irlandese, avverte gli spettatori che:

QUOTE:
«La verginità di una giovane è come un orzaiolo nell'occhio del diavolo»


Intanto si presenta un attore che rivolto al pubblico illustra la commedia.
Nel primo atto appare Belzebù che si lamenta con i suoi due consiglieri per l'orzaiolo causatogli da Britt Marie, figlia di un pastore, che vuole arrivare vergine al matrimonio con il fidanzato Jonas. Dopo il consulto si decide di far ritornare sulla terra Don Giovanni, che sta attualmente scontando la pena che consiste nel desiderare donne che poi scompaiono, per sedurre la ragazza e in cambio gli viene promesso uno sconto sulla pena di trecento anni.
Così Don Giovanni, in compagnia dello scudiero Pablo e di un demone controllore travestito da frate, sale sulla Terra e Belzebù fa in modo che l'auto del padre di Britt si fermi per un guasto meccanico risolto dai due che, in compenso, vengono invitati a cena. Don Giovanni inizia subito a corteggiare Britt mentre Pablo fa la corte alla moglie del pastore che si rivela una donna insoddisfatta. Intanto un gatto nero, metamorfosi del demone che gli permette di controllare meglio, si aggira tra le stanze. Britt intanto accetta i corteggiamenti di Don Giovanni e si lascia baciare.
Nel secondo atto annunciato dall'attore gli ospiti sono accolti nella canonica del pastore a causa di un forte temporale scatenato dal diavolo. Durante la cena Britt si dimostra inquieta perché si rende conto di essere stata presa dal desiderio per Don Giovanni e litiga con il fidanzato. Quando il pastore va a dormire dedica la preghiera della sera alla moglie perché possa superare i suoi problemi, ma la moglie nel frattempo ha accettato la corte di Pablo e si lascia possedere. Il diavolo travestito da frate va a raccontare tutto al pastore che però non vuole credergli e lo chiude in un armadio.
Viene annunciato dall'attore il terzo atto. Si vede Don Giovanni che entra nella stanza di Britt ma, accortosi di amarla, rinuncia a sedurla. Il pastore intanto, seduto sulle scale, vede sua moglie e Pablo uscire dalla camera da letto e ha con lei una spiegazione che porta al perdono. Don Giovanni intanto, raggiunta Britt, le confessa il suo amore, ma la ragazza dice di non amarlo e Don Giovanni ricade all'inferno. Belzebù è costretto ad ammettere che il male è stato sconfitto [3] e rassegnato dice: "Le potenze celesti ci hanno sconfitto".
Prima che cali il sipario un diavolo fa ascoltare al pubblico quello che accade sulla terra: Britt, con una bugia che ricompone l'equilibrio, dice al marito Jonas che non ha mai baciato nessuno prima di lui e l'orzaiolo scompare dall'occhio del diavolo.

CRITICA

QUOTE:

Il mito dell'eterno seduttore presentato da Björnstrand, attore-narratore del film nonche' alter-ego di Bergman, subisce un'interessante metamorfosi, ma L'occhio del diavolo, nonostante le intenzioni, si perde in dialoghi eccessivamente verbosi e didascalici per il tono leggero e grottesco dell'insieme.


Da Il Mereghetti.


SCREENSHOT




SCHEDA TECNICA
[spoiler]
General
Unique ID                                : 187672005401808879711166432864836839946 (0x8D3050410DFB6347AB4ADF1B29A8EA0A)
Complete name                            : L'occhio del diavolo (1960) - Djävulens öga (Ingmar Bergman) [1080p, x265, AC3][ITA, SWE].mkv
Format                                   : Matroska
Format version                           : Version 4
File size                                : 3.06 GiB
Duration                                 : 1 h 28 min
Overall bit rate                         : 4 978 kb/s
Movie name                               : L'occhio del diavolo
Encoded date                             : UTC 2022-02-10 14:43:54
Writing application                      : mkvmerge v45.0.0 ('Heaven in Pennies&#39 64-bit
Writing library                          : libebml v1.3.10 + libmatroska v1.5.2 / Lavf58.29.100

Video
ID                                       : 1
Format                                   : HEVC
Format/Info                              : High Efficiency Video Coding
Format profile                           : [email protected]@Main
Codec ID                                 : V_MPEGH/ISO/HEVC
Duration                                 : 1 h 28 min
Bit rate                                 : 4 559 kb/s
Width                                    : 1 480 pixels
Height                                   : 1 080 pixels
Display aspect ratio                     : 1.370
Frame rate mode                          : Constant
Frame rate                               : 23.976 (24000/1001) FPS
Color space                              : YUV
Chroma subsampling                       : 4:2:0
Bit depth                                : 8 bits
Bits/(Pixel*Frame)                       : 0.119
Stream size                              : 2.80 GiB (92%)
Writing library                          : x265 3.2.1+1-b5c86a64bbbe:[Linux][GCC 9.3.0][64 bit] 8bit+10bit+12bit
Encoding settings                        : cpuid=1111039 / frame-threads=4 / wpp / no-pmode / no-pme / no-psnr / no-ssim / log-level=2 / input-csp=1 / input-res=1480x1080 / interlace=0 / total-frames=0 / level-idc=0 / high-tier=1 / uhd-bd=0 / ref=4 / no-allow-non-conformance / no-repeat-headers / annexb / no-aud / no-hrd / info / hash=0 / no-temporal-layers / open-gop / min-keyint=24 / keyint=240 / gop-lookahead=0 / bframes=4 / b-adapt=2 / b-pyramid / bframe-bias=0 / rc-lookahead=25 / lookahead-slices=4 / scenecut=40 / radl=0 / no-splice / no-intra-refresh / ctu=64 / min-cu-size=8 / no-rect / no-amp / max-tu-size=32 / tu-inter-depth=1 / tu-intra-depth=1 / limit-tu=0 / rdoq-level=2 / dynamic-rd=0.00 / no-ssim-rd / signhide / no-tskip / nr-intra=0 / nr-inter=0 / no-constrained-intra / no-strong-intra-smoothing / max-merge=3 / limit-refs=3 / limit-modes / me=3 / subme=3 / merange=57 / temporal-mvp / no-hme / weightp / no-weightb / no-analyze-src-pics / deblock=0:0 / sao / no-sao-non-deblock / rd=4 / selective-sao=4 / no-early-skip / rskip / no-fast-intra / no-tskip-fast / no-cu-lossless / no-b-intra / no-splitrd-skip / rdpenalty=0 / psy-rd=2.00 / psy-rdoq=1.00 / no-rd-refine / no-lossless / cbqpoffs=0 / crqpoffs=0 / rc=crf / crf=22.0 / qcomp=0.60 / qpstep=4 / stats-write=0 / stats-read=0 / ipratio=1.40 / pbratio=1.30 / aq-mode=1 / aq-strength=1.00 / cutree / zone-count=0 / no-strict-cbr / qg-size=32 / no-rc-grain / qpmax=69 / qpmin=0 / no-const-vbv / sar=1 / overscan=0 / videoformat=5 / range=0 / colorprim=1 / transfer=1 / colormatrix=1 / chromaloc=0 / display-window=0 / cll=0,0 / min-luma=0 / max-luma=255 / log2-max-poc-lsb=8 / vui-timing-info / vui-hrd-info / slices=1 / no-opt-qp-pps / no-opt-ref-list-length-pps / no-multi-pass-opt-rps / scenecut-bias=0.05 / no-opt-cu-delta-qp / no-aq-motion / no-hdr / no-hdr-opt / no-dhdr10-opt / no-idr-recovery-sei / analysis-reuse-level=5 / scale-factor=0 / refine-intra=0 / refine-inter=0 / refine-mv=1 / refine-ctu-distortion=0 / no-limit-sao / ctu-info=0 / no-lowpass-dct / refine-analysis-type=0 / copy-pic=1 / max-ausize-factor=1.0 / no-dynamic-refine / no-single-sei / no-hevc-aq / no-svt / no-field / qp-adaptation-range=1.00
Default                                  : Yes
Forced                                   : No
Color range                              : Limited
Color primaries                          : BT.709
Transfer characteristics                 : BT.709
Matrix coefficients                      : BT.709

Audio #1
ID                                       : 2
Format                                   : AC-3
Format/Info                              : Audio Coding 3
Commercial name                          : Dolby Digital
Codec ID                                 : A_AC3
Duration                                 : 1 h 28 min
Bit rate mode                            : Constant
Bit rate                                 : 224 kb/s
Channel(s)                               : 2 channels
Channel layout                           : L R
Sampling rate                            : 48.0 kHz
Frame rate                               : 31.250 FPS (1536 SPF)
Compression mode                         : Lossy
Delay relative to video                  : -21 ms
Stream size                              : 141 MiB (5%)
Title                                    : Italiano
Language                                 : Italian
Service kind                             : Complete Main
Default                                  : Yes
Forced                                   : No

Audio #2
ID                                       : 3
Format                                   : AC-3
Format/Info                              : Audio Coding 3
Commercial name                          : Dolby Digital
Codec ID                                 : A_AC3
Duration                                 : 1 h 28 min
Bit rate mode                            : Constant
Bit rate                                 : 192 kb/s
Channel(s)                               : 1 channel
Channel layout                           : C
Sampling rate                            : 48.0 kHz
Frame rate                               : 31.250 FPS (1536 SPF)
Compression mode                         : Lossy
Delay relative to video                  : -21 ms
Stream size                              : 121 MiB (4%)
Title                                    : Swedish
Language                                 : Swedish
Service kind                             : Complete Main
Default                                  : No
Forced                                   : No

Text #1
ID                                       : 4
Format                                   : UTF-8
Codec ID                                 : S_TEXT/UTF8
Codec ID/Info                            : UTF-8 Plain Text
Duration                                 : 23 min 33 s
Bit rate                                 : 6 b/s
Count of elements                        : 48
Stream size                              : 1.16 KiB (0%)
Title                                    : Italian Forced
Language                                 : Italian
Default                                  : Yes
Forced                                   : No

Text #2
ID                                       : 5
Format                                   : UTF-8
Codec ID                                 : S_TEXT/UTF8
Codec ID/Info                            : UTF-8 Plain Text
Duration                                 : 1 h 26 min
Bit rate                                 : 52 b/s
Count of elements                        : 1062
Stream size                              : 33.2 KiB (0%)
Title                                    : Italian Regular
Language                                 : Italian
Default                                  : No
Forced                                   : No

Text #3
ID                                       : 6
Format                                   : UTF-8
Codec ID                                 : S_TEXT/UTF8
Codec ID/Info                            : UTF-8 Plain Text
Duration                                 : 1 h 27 min
Bit rate                                 : 65 b/s
Count of elements                        : 1186
Stream size                              : 42.2 KiB (0%)
Title                                    : English Regular
Language                                 : English
Default                                  : No
Forced                                   : No

Menu
00:00:00.000                             : en:00:00:00.000
00:06:20.380                             : en:00:06:20.380
00:11:02.662                             : en:00:11:02.662
00:17:24.460                             : en:00:17:24.460
00:21:56.565                             : en:00:21:56.565
00:29:39.277                             : en:00:29:39.277
00:34:19.891                             : en:00:34:19.891
00:40:09.782                             : en:00:40:09.782
00:44:10.481                             : en:00:44:10.481
00:48:11.889                             : en:00:48:11.889
00:53:53.647                             : en:00:53:53.647
00:59:16.344                             : en:00:59:16.344
01:06:16.389                             : en:01:06:16.389
01:10:33.980                             : en:01:10:33.980
01:14:29.799                             : en:01:14:29.799
01:20:36.832                             : en:01:20:36.832

[/spoiler]
Info: Per scaricare devi usare un client come uTorrent o Transmission
AnnounceURL
udp://tracker.torrent.eu.org:451/announce
Hash dc40ea63a94716531c41958a48ac52e7ba5c72bb
Peers seeds: 11 , leech: 2
Size 3.06 GB
Completato 455x
Aggiunto 07.06.22 - 10:06:43
Uploader   denise1234
Votazione (Voti: 0)


Condividi questo bittorrent:


html/blog:


bbcode/forum:




Aggiungi Commento