* Dettagli Torrent   globale  | Commenti (0) 


- Un estate d amore (1951) 1080p x265 AC3 Ita Swe Sub Ita Eng -


Download via torrent:
Categoria bittorrent BDRip
Descrizione



SCHEDA FILM
Titolo: Un estate d amore
Titolo originale: Sommarlek
Paese di produzione: Svezia
Anno: 1951
Genere: drammatico
Regia: Ingmar Bergman
Durata: 96 min

CAST
Maj-Britt Nilsson: Marie
Birger Malmsten: Henrik
Alf Kjellin: David Nyström
Annalisa Ericson: Kaj, ballerina
Georg Funkquist: zio Erland
Stig Olin: maestro di danza
Mimi Pollak: signora Calwagen
Renée Björling: zia Elisabeth
Gunnar Olsson: sacerdote

TRAMA
La ballerina Marie riceve un plico che contiene il diario di Henrik, un giovane che ha amato durante un'estate di tredici anni prima e che era morto in modo prematuro per un incidente. Durante una giornata in cui non ha prove di balletto, Marie, senza dire nulla a David, il fidanzato, si reca allo chalet sul mare dove aveva vissuto quei giorni d'amore ed è presa da nostalgici ricordi.
Scopre intanto che il diario le è stato inviato per vendetta da suo zio Erland, che dopo la morte del giovane aveva approfittato del suo smarrimento per coinvolgerla in una squallida relazione. Ritornata in città per riprendere le prove, si confida con il suo maestro di ballo, che la incoraggia ad abbandonare i ricordi e a guardare in faccia la realtà del presente. Marie decide così di consegnare il diario a David, un giornalista che la ama, e lo invita a leggerlo. Se dopo averlo letto la vorrà ancora sposare lei accetterà. Il giovane, dopo aver letto il diario, le assicura il suo amore e Marie si abbandona a lui rompendo così quel muro di egoismo che aveva innalzato dopo la morte di Henrik.

CRITICA

QUOTE:

L'amore, la tragedia e il tempo: Bergman racconta una breve e intensa passione, dilatata nel ricordo e nella realta' dal suo drammatico epilogo fino a provocare un blocco motivo che sfocia in amare riflessioni sull'amore e sul destino.
Contro ogni previsione pero', sceglie un finale aperto alla speranza e alla necessita' di ricominciare a vivere con nuova energia.
Per il regista, e' il primo film in cui si sia sentito davvero in grado di esprimersi. Oltre alla consueta, intensa bellezza del paesaggio, tutt'uno con quello interiore della protagonista [...], va sottolineato l'uso programmatico della colonna sonora (dove predominano ?ajkovskij e Copin) che cadenza con puntualita' l'atmosfera e i passaggi emotivi del racconto.


Da Il Mereghetti.


SCREENSHOT




SCHEDA TECNICA
[spoiler]
General
Unique ID                                : 192871950259776422103379475202883021582 (0x9119C95460F2F22E486FFD6351E56B0E)
Complete name                            : Un'estate d'amore (1951) - Sommarlek (Ingmar Bergman) [1080p, x265, AC3][ITA, SWE].mkv
Format                                   : Matroska
Format version                           : Version 4
File size                                : 7.64 GiB
Duration                                 : 1 h 36 min
Overall bit rate                         : 11.3 Mb/s
Movie name                               : Un'estate d'amore
Encoded date                             : UTC 2022-01-25 15:23:33
Writing application                      : mkvmerge v45.0.0 ('Heaven in Pennies&#39 64-bit
Writing library                          : libebml v1.3.10 + libmatroska v1.5.2 / Lavf58.29.100

Video
ID                                       : 6
Format                                   : HEVC
Format/Info                              : High Efficiency Video Coding
Format profile                           : [email protected]@Main
Codec ID                                 : V_MPEGH/ISO/HEVC
Duration                                 : 1 h 36 min
Bit rate                                 : 10.9 Mb/s
Width                                    : 1 484 pixels
Height                                   : 1 080 pixels
Display aspect ratio                     : 1.374
Frame rate mode                          : Constant
Frame rate                               : 23.976 (24000/1001) FPS
Color space                              : YUV
Chroma subsampling                       : 4:2:0
Bit depth                                : 8 bits
Bits/(Pixel*Frame)                       : 0.284
Stream size                              : 7.35 GiB (96%)
Writing library                          : x265 3.2.1+1-b5c86a64bbbe:[Linux][GCC 9.3.0][64 bit] 8bit+10bit+12bit
Encoding settings                        : cpuid=1111039 / frame-threads=4 / wpp / no-pmode / no-pme / no-psnr / no-ssim / log-level=2 / input-csp=1 / input-res=1484x1080 / interlace=0 / total-frames=0 / level-idc=0 / high-tier=1 / uhd-bd=0 / ref=4 / no-allow-non-conformance / no-repeat-headers / annexb / no-aud / no-hrd / info / hash=0 / no-temporal-layers / open-gop / min-keyint=24 / keyint=240 / gop-lookahead=0 / bframes=4 / b-adapt=2 / b-pyramid / bframe-bias=0 / rc-lookahead=25 / lookahead-slices=4 / scenecut=40 / radl=0 / no-splice / no-intra-refresh / ctu=64 / min-cu-size=8 / no-rect / no-amp / max-tu-size=32 / tu-inter-depth=1 / tu-intra-depth=1 / limit-tu=0 / rdoq-level=2 / dynamic-rd=0.00 / no-ssim-rd / signhide / no-tskip / nr-intra=0 / nr-inter=0 / no-constrained-intra / no-strong-intra-smoothing / max-merge=3 / limit-refs=3 / limit-modes / me=3 / subme=3 / merange=57 / temporal-mvp / no-hme / weightp / no-weightb / no-analyze-src-pics / deblock=0:0 / sao / no-sao-non-deblock / rd=4 / selective-sao=4 / no-early-skip / rskip / no-fast-intra / no-tskip-fast / no-cu-lossless / no-b-intra / no-splitrd-skip / rdpenalty=0 / psy-rd=2.00 / psy-rdoq=1.00 / no-rd-refine / no-lossless / cbqpoffs=0 / crqpoffs=0 / rc=crf / crf=22.0 / qcomp=0.60 / qpstep=4 / stats-write=0 / stats-read=0 / ipratio=1.40 / pbratio=1.30 / aq-mode=1 / aq-strength=1.00 / cutree / zone-count=0 / no-strict-cbr / qg-size=32 / no-rc-grain / qpmax=69 / qpmin=0 / no-const-vbv / sar=1 / overscan=0 / videoformat=5 / range=0 / colorprim=1 / transfer=1 / colormatrix=1 / chromaloc=0 / display-window=0 / cll=0,0 / min-luma=0 / max-luma=255 / log2-max-poc-lsb=8 / vui-timing-info / vui-hrd-info / slices=1 / no-opt-qp-pps / no-opt-ref-list-length-pps / no-multi-pass-opt-rps / scenecut-bias=0.05 / no-opt-cu-delta-qp / no-aq-motion / no-hdr / no-hdr-opt / no-dhdr10-opt / no-idr-recovery-sei / analysis-reuse-level=5 / scale-factor=0 / refine-intra=0 / refine-inter=0 / refine-mv=1 / refine-ctu-distortion=0 / no-limit-sao / ctu-info=0 / no-lowpass-dct / refine-analysis-type=0 / copy-pic=1 / max-ausize-factor=1.0 / no-dynamic-refine / no-single-sei / no-hevc-aq / no-svt / no-field / qp-adaptation-range=1.00
Default                                  : Yes
Forced                                   : No
Color range                              : Limited
Color primaries                          : BT.709
Transfer characteristics                 : BT.709
Matrix coefficients                      : BT.709

Audio #1
ID                                       : 1
Format                                   : AC-3
Format/Info                              : Audio Coding 3
Commercial name                          : Dolby Digital
Codec ID                                 : A_AC3
Duration                                 : 1 h 36 min
Bit rate mode                            : Constant
Bit rate                                 : 224 kb/s
Channel(s)                               : 2 channels
Channel layout                           : L R
Sampling rate                            : 48.0 kHz
Frame rate                               : 31.250 FPS (1536 SPF)
Compression mode                         : Lossy
Delay relative to video                  : -21 ms
Stream size                              : 154 MiB (2%)
Title                                    : ITA
Language                                 : Italian
Service kind                             : Complete Main
Default                                  : Yes
Forced                                   : No

Audio #2
ID                                       : 2
Format                                   : AC-3
Format/Info                              : Audio Coding 3
Commercial name                          : Dolby Digital
Codec ID                                 : A_AC3
Duration                                 : 1 h 36 min
Bit rate mode                            : Constant
Bit rate                                 : 192 kb/s
Channel(s)                               : 1 channel
Channel layout                           : C
Sampling rate                            : 48.0 kHz
Frame rate                               : 31.250 FPS (1536 SPF)
Compression mode                         : Lossy
Delay relative to video                  : -21 ms
Stream size                              : 132 MiB (2%)
Title                                    : SWE
Language                                 : Swedish
Service kind                             : Complete Main
Default                                  : No
Forced                                   : No

Text #1
ID                                       : 3
Format                                   : UTF-8
Codec ID                                 : S_TEXT/UTF8
Codec ID/Info                            : UTF-8 Plain Text
Duration                                 : 42 min 15 s
Bit rate                                 : 5 b/s
Count of elements                        : 44
Stream size                              : 1.75 KiB (0%)
Title                                    : Italian Forced
Language                                 : Italian
Default                                  : Yes
Forced                                   : Yes

Text #2
ID                                       : 4
Format                                   : UTF-8
Codec ID                                 : S_TEXT/UTF8
Codec ID/Info                            : UTF-8 Plain Text
Duration                                 : 1 h 33 min
Bit rate                                 : 47 b/s
Count of elements                        : 834
Stream size                              : 32.7 KiB (0%)
Title                                    : Italian Regular
Language                                 : Italian
Default                                  : No
Forced                                   : No

Text #3
ID                                       : 5
Format                                   : UTF-8
Codec ID                                 : S_TEXT/UTF8
Codec ID/Info                            : UTF-8 Plain Text
Duration                                 : 1 h 34 min
Bit rate                                 : 43 b/s
Count of elements                        : 983
Stream size                              : 29.9 KiB (0%)
Title                                    : English Regular
Language                                 : English
Default                                  : No
Forced                                   : No

Menu
00:00:00.000                             : en:00:00:00.000
00:10:39.514                             : en:00:10:39.514
00:15:53.494                             : en:00:15:53.494
00:22:23.842                             : en:00:22:23.842
00:30:21.111                             : en:00:30:21.111
00:35:00.515                             : en:00:35:00.515
00:39:06.427                             : en:00:39:06.427
00:45:04.702                             : en:00:45:04.702
00:48:21.315                             : en:00:48:21.315
00:53:36.630                             : en:00:53:36.630
00:59:23.059                             : en:00:59:23.059
01:09:07.268                             : en:01:09:07.268
01:14:33.636                             : en:01:14:33.636
01:20:41.712                             : en:01:20:41.712
01:32:48.938                             : en:01:32:48.938

[/spoiler]
Info: Per scaricare devi usare un client come uTorrent o Transmission
AnnounceURL
udp://tracker.torrent.eu.org:451/announce
Hash 8e57632f3a27d89d977ede27f282abf5fd942013
Peers seeds: 11 , leech: 2
Size 7.64 GB
Completato 330x
Aggiunto 07.06.22 - 10:06:31
Uploader   denise1234
Votazione (Voti: 0)


Condividi questo bittorrent:


html/blog:


bbcode/forum:




Aggiungi Commento