* Dettagli Torrent   globale  | Commenti (0) 


- Divina creatura (1975) 1080p H264 EAC3 Ita Sub NUIta Eng Spa -


Download via torrent:
Categoria bittorrent BDRip
Descrizione



SCHEDA FILM
Titolo: Divina creatura
Paese di produzione: Italia
Anno: 1975
Genere: drammatico
Regia: Giuseppe Patroni Griffi
Durata: 115 min

CAST
Laura Antonelli: Manuela Roderighi
Terence Stamp: duca Daniele di Bagnasco
Marcello Mastroianni: marchese Michele Barra
Michele Placido: Martino Ghiondelli
Duilio Del Prete: conte Armellino
Ettore Manni: professor Marco Pisani
Carlo Tamberlani: Pasqualino, maggiordomo del duca
Cecilia Polizzi: ex amante del duca
Piero Di Iorio: cameriere del duca
Marina Berti: zia di Manuela
Doris Duranti: Fernanda Fonés

TRAMA
Nell'alta società della Roma degli anni venti, il duca Daniele di Bagnasco è uno degli uomini più in vista, brillante e affascinante conquistatore di cuori femminili.
Quando si invaghisce della borghese Manuela Roderighi, condividendola e poi strappandola all'ingenuo fidanzato Martino Ghiondelli, quella che dovrebbe essere solo l'ennesima avventura di breve durata si trasforma in una bruciante passione, messa però a dura prova dalla scoperta che la donna frequenta abitualmente la famigerata casa d'appuntamenti della signora Fonés e dai dubbi tormentosi sul fatto che lei ricambi davvero i suoi sentimenti.

SCREENSHOT




SCHEDA TECNICA
[spoiler]
General
Unique ID                                : 237883338103564194032780854445795895682 (0xB2F6AA16EF193800E093260164B2E982)
Complete name                            : Divina creatura (1975) (Giuseppe Patroni Griffi) [1080p, AVC, EAC3][ITA].mkv
Format                                   : Matroska
Format version                           : Version 4
File size                                : 8.09 GiB
Duration                                 : 1 h 54 min
Overall bit rate                         : 10.2 Mb/s
Movie name                               : Divina creatura
Encoded date                             : UTC 2022-05-31 14:13:54
Writing application                      : mkvmerge v45.0.0 ('Heaven in Pennies&#39 64-bit
Writing library                          : libebml v1.3.10 + libmatroska v1.5.2

Video
ID                                       : 1
Format                                   : AVC
Format/Info                              : Advanced Video Codec
Format profile                           : [email protected]
Format settings                          : CABAC / 4 Ref Frames
Format settings, CABAC                   : Yes
Format settings, Reference frames        : 4 frames
Codec ID                                 : V_MPEG4/ISO/AVC
Duration                                 : 1 h 54 min
Bit rate mode                            : Constant
Bit rate                                 : 10 000 kb/s
Width                                    : 1 920 pixels
Height                                   : 1 040 pixels
Display aspect ratio                     : 1.85:1
Frame rate mode                          : Constant
Frame rate                               : 24.000 FPS
Color space                              : YUV
Chroma subsampling                       : 4:2:0
Bit depth                                : 8 bits
Scan type                                : Progressive
Bits/(Pixel*Frame)                       : 0.209
Stream size                              : 7.91 GiB (98%)
Default                                  : Yes
Forced                                   : No
Color range                              : Limited
Color primaries                          : BT.709
Transfer characteristics                 : BT.709
Matrix coefficients                      : BT.709

Audio
ID                                       : 2
Format                                   : E-AC-3
Format/Info                              : Enhanced AC-3
Commercial name                          : Dolby Digital Plus
Codec ID                                 : A_EAC3
Duration                                 : 1 h 54 min
Bit rate mode                            : Constant
Bit rate                                 : 224 kb/s
Channel(s)                               : 2 channels
Channel layout                           : L R
Sampling rate                            : 48.0 kHz
Frame rate                               : 31.250 FPS (1536 SPF)
Compression mode                         : Lossy
Stream size                              : 183 MiB (2%)
Title                                    : Italiano
Language                                 : Italian
Service kind                             : Complete Main
Default                                  : Yes
Forced                                   : No

Text #1
ID                                       : 3
Format                                   : UTF-8
Codec ID                                 : S_TEXT/UTF8
Codec ID/Info                            : UTF-8 Plain Text
Duration                                 : 1 h 51 min
Bit rate                                 : 41 b/s
Count of elements                        : 1213
Stream size                              : 33.9 KiB (0%)
Title                                    : English
Language                                 : English
Default                                  : No
Forced                                   : No

Text #2
ID                                       : 4
Format                                   : UTF-8
Codec ID                                 : S_TEXT/UTF8
Codec ID/Info                            : UTF-8 Plain Text
Duration                                 : 1 h 49 min
Bit rate                                 : 47 b/s
Count of elements                        : 937
Stream size                              : 37.7 KiB (0%)
Title                                    : Italiano SDH
Language                                 : Italian
Default                                  : No
Forced                                   : No

Text #3
ID                                       : 5
Format                                   : UTF-8
Codec ID                                 : S_TEXT/UTF8
Codec ID/Info                            : UTF-8 Plain Text
Duration                                 : 1 h 51 min
Bit rate                                 : 56 b/s
Count of elements                        : 1224
Stream size                              : 45.8 KiB (0%)
Title                                    : Spanish
Language                                 : Spanish
Default                                  : No
Forced                                   : No

[/spoiler]
Info: Per scaricare devi usare un client come uTorrent o Transmission
AnnounceURL
udp://tracker.torrent.eu.org:451/announce
Hash 203ce25bb6bbbea0d7de4e1aadc71b38642d6e92
Peers seeds: 7 , leech: 2
Size 8.09 GB
Completato 313x
Aggiunto 07.06.22 - 09:06:37
Uploader   denise1234
Votazione (Voti: 0)


Condividi questo bittorrent:


html/blog:


bbcode/forum:




Aggiungi Commento