* Dettagli Torrent   globale  | Commenti (0) 


- La donna scimmia (1964) 1080p H264 AC3 Ita Sub NUEng -


Download via torrent:
Categoria bittorrent BDRip
Descrizione


SCHEDA FILM
Titolo: La donna scimmia
Paese di produzione: Italia, Francia
Anno: 1964
Genere: drammatico, grottesco
Regia: Marco Ferreri
Durata: 92 min

CAST
Ugo Tognazzi: Antonio Focaccia
Annie Girardot: Maria
Achille Majeroni: impresario teatrale Majeroni
Filippo Pompa Marcelli: Bruno
Ermelinda De Felice: suora
Antonio Altoviti: il professore

TRAMA
Napoli. Antonio Focaccia è un imbroglione da quattro soldi che vive di espedienti nella zona della Duchesca. Capitato per caso in un ospizio per vecchi, per vendere la sua merce, si accorge di una giovane completamente ricoperta di peli, Maria. La ragazza vive lì nascosta da sempre e Focaccia la persuade ad abbandonare l'ospizio in cui è rinchiusa e a partire per una tournée con uno spettacolo rudimentale, in cui lei sarà presentata al pubblico come unico esemplare vivente di donna-scimmia, ritrovata in una sperduta foresta africana. Maria accetta la proposta dell'uomo da cui però viene ingannata: Antonio, infatti la sfrutta e le fa credere di essere sua socia (l'uomo arriverà addirittura a perpetrare una truffa ai danni di uno zoologo).
Maria, scoperti gli inganni di Focaccia (di cui si innamora), torna sdegnata all'ospizio in cui era stata rinchiusa per tutta la sua vita e, dopo alcuni mesi e numerose trattative con le monache dell'ospizio, Antonio, un po' per pietà ma tanto per interesse, la sposa. I due partiranno consapevolmente per una tournée organizzata da un impresario francese e si recheranno a Parigi, dove Maria s'accorgerà di attendere un figlio. Durante il parto madre e figlio muoiono e un museo accoglie i loro corpi imbalsamati. Antonio, sempre pronto a sfruttare e lucrare da ogni occasione, reclama i due corpi per mostrarli al pubblico in un baraccone da fiera.

SCREENSHOT






SCHEDA TECNICA
[spoiler]
General
Unique ID                                : 20356009290859586104222074402026573871 (0xF506CBEA76C5ADC88094227DC60502F)
Complete name                            : La donna scimmia (1964) (Marco Ferreri) [1080p, x264, AC3][ITA].mkv
Format                                   : Matroska
Format version                           : Version 4
File size                                : 9.65 GiB
Duration                                 : 1 h 38 min
Overall bit rate                         : 14.0 Mb/s
Movie name                               : La donna scimmia
Encoded date                             : UTC 2022-05-30 09:57:53
Writing application                      : mkvmerge v45.0.0 ('Heaven in Pennies&#39 64-bit
Writing library                          : libebml v1.3.10 + libmatroska v1.5.2

Video
ID                                       : 1
Format                                   : AVC
Format/Info                              : Advanced Video Codec
Format profile                           : [email protected]
Format settings                          : CABAC / 4 Ref Frames
Format settings, CABAC                   : Yes
Format settings, Reference frames        : 4 frames
Codec ID                                 : V_MPEG4/ISO/AVC
Duration                                 : 1 h 38 min
Bit rate                                 : 13.4 Mb/s
Width                                    : 1 916 pixels
Height                                   : 1 036 pixels
Display aspect ratio                     : 1.85:1
Frame rate mode                          : Constant
Frame rate                               : 24.000 FPS
Color space                              : YUV
Chroma subsampling                       : 4:2:0
Bit depth                                : 8 bits
Scan type                                : Progressive
Bits/(Pixel*Frame)                       : 0.281
Stream size                              : 9.21 GiB (95%)
Writing library                          : x264 core 164 r3065 ae03d92
Encoding settings                        : cabac=1 / ref=4 / deblock=1:0:0 / analyse=0x3:0x133 / me=umh / subme=10 / psy=1 / psy_rd=1.00:0.00 / mixed_ref=1 / me_range=24 / chroma_me=1 / trellis=2 / 8x8dct=1 / cqm=0 / deadzone=21,11 / fast_pskip=1 / chroma_qp_offset=-2 / threads=24 / lookahead_threads=2 / sliced_threads=0 / nr=0 / decimate=1 / interlaced=0 / bluray_compat=0 / constrained_intra=0 / bframes=5 / b_pyramid=2 / b_adapt=2 / b_bias=0 / direct=3 / weightb=1 / open_gop=0 / weightp=2 / keyint=240 / keyint_min=24 / scenecut=40 / intra_refresh=0 / rc_lookahead=60 / rc=crf / mbtree=1 / crf=18.0 / qcomp=0.60 / qpmin=0 / qpmax=69 / qpstep=4 / vbv_maxrate=25000 / vbv_bufsize=31250 / crf_max=0.0 / nal_hrd=none / filler=0 / ip_ratio=1.40 / aq=1:1.00
Default                                  : Yes
Forced                                   : No
Color range                              : Limited
Color primaries                          : BT.709
Transfer characteristics                 : BT.709
Matrix coefficients                      : BT.709

Audio
ID                                       : 2
Format                                   : AC-3
Format/Info                              : Audio Coding 3
Commercial name                          : Dolby Digital
Codec ID                                 : A_AC3
Duration                                 : 1 h 38 min
Bit rate mode                            : Constant
Bit rate                                 : 640 kb/s
Channel(s)                               : 1 channel
Channel layout                           : C
Sampling rate                            : 48.0 kHz
Frame rate                               : 31.250 FPS (1536 SPF)
Compression mode                         : Lossy
Delay relative to video                  : -5 ms
Stream size                              : 451 MiB (5%)
Title                                    : Italiano
Language                                 : Italian
Service kind                             : Complete Main
Default                                  : Yes
Forced                                   : No

Text
ID                                       : 3
Format                                   : ASS
Codec ID                                 : S_TEXT/ASS
Codec ID/Info                            : Advanced Sub Station Alpha
Duration                                 : 1 h 37 min
Bit rate                                 : 120 b/s
Count of elements                        : 1556
Compression mode                         : Lossless
Stream size                              : 86.0 KiB (0%)
Title                                    : Englush SDH
Language                                 : English
Default                                  : No
Forced                                   : No

Menu
00:00:00.000                             : :Titoli di testa
00:02:31.000                             : :Antonio
00:07:29.042                             : :Maria
00:15:57.250                             : :Lo spettacolo
00:25:23.292                             : :La donna scimmia
00:29:27.667                             : al professore
00:39:53.000                             : :La fuga
00:44:21.167                             : :Il matrimonio
00:52:26.667                             : :Il provino
00:59:54.958                             : :A Parigi
01:06:59.958                             : :"Aspetto un bambino!"
01:13:18.750                             : :"Pensi solo ai soldi!"
01:22:56.500                             : :Finale alternativo
01:37:26.875                             : :Titoli di coda



[/spoiler]
Info: Per scaricare devi usare un client come uTorrent o Transmission
AnnounceURL
udp://tracker.torrent.eu.org:451/announce
Hash a01c1d62420e2c69852d3a7aa263d8b9583543af
Peers seeds: 11 , leech: 3
Size 9.65 GB
Completato 268x
Aggiunto 07.06.22 - 09:06:29
Uploader   denise1234
Votazione (Voti: 0)


Condividi questo bittorrent:


html/blog:


bbcode/forum:




Aggiungi Commento